↑↓Torrent.by
Поиск
Логин: Регистрация
Пароль: Восстановить пароль
Загрузка...

Семья по-быстрому / Instant Family (2018) BDRemux 1080p от селезень | Лицензия

Скачать semya-po-bystromu-instant-family-2018-bdremux-1080p-ot-selezen-licenziya.torrent
U Магнитная ссылка Размер: 26.39 GB Раздают: 88 Качают: 37 Добавлен: 2019-05-01 07:13:44
Семья по-быстрому / Instant Family (2018) BDRemux 1080p от селезень | Лицензия

Название: Семья по-быстрому
Оригинальное название: Instant Family
Год выхода: 2018
Жанр: Драма, комедия
Режиссер: Шон Андерс
В ролях: Марк Уолберг, Роуз Бирн, Изабела Монер, Густаво Куирос мл., Джулианна Гамиз, Октавия Спенсер, Тиг Нотаро, Том Сегура, Эллин Рэйчел, Бритт Рентшлер

О фильме: Усыновляя трех детей, бездетная супружеская пара не представляла, с каким количеством проблем им придется столкнуться.

Страна: США
Студия: Paramount Pictures
Продолжительность: 01:58:05
Перевод: Дублированный | Лицензия

Качество: BDRemux 1080p
Видео: MPEG-4 AVC, 1920x1080, 27.4 Мbit/s, 23.976 fps
Звук:
Аудио #01: 48 kHz, AC3, 5.1, 640 Kbps | Лицензия | RUS |
Аудио #02: 48 kHz, DTS-HD MA, 7.1, 3976 Kbps | Оригинал |  ENG |
Субтитры: Русские (Forced, full), английские

Релиз:


[+] MI
General
Unique ID                   : 96347344355446034342811103704856843734 (0x487BD2D48AC35813A23B609712D6D5D6)
Complete name               : F:Video1Instant.Family.2018.BDREMUX.1080p.seleZen.mkv
Format                      : Matroska
Format version              : Version 4
File size                   : 26.4 GiB
Duration                    : 1 h 58 min
Overall bit rate mode       : Variable
Overall bit rate            : 32.0 Mb/s
Movie name                  : Instant Family 2018 from селезень
Encoded date                : UTC 2019-04-30 07:39:18
Writing application         : mkvmerge v32.0.0 ('Astral Progressions') 64-bit
Writing library             : libebml v1.3.7 + libmatroska v1.5.0

Video
ID                          : 1
Format                      : AVC
Format/Info                 : Advanced Video Codec
Format profile              : High@L4.1
Format settings             : CABAC / 4 Ref Frames
Format settings, CABAC      : Yes
Format settings, Reference  : 4 frames
Codec ID                    : V_MPEG4/ISO/AVC
Duration                    : 1 h 58 min
Bit rate mode               : Variable
Bit rate                    : 27.4 Mb/s
Maximum bit rate            : 30.5 Mb/s
Width                       : 1 920 pixels
Height                      : 1 080 pixels
Display aspect ratio        : 16:9
Frame rate mode             : Constant
Frame rate                  : 23.976 (24000/1001) FPS
Color space                 : YUV
Chroma subsampling          : 4:2:0
Bit depth                   : 8 bits
Scan type                   : Progressive
Bits/(Pixel*Frame)          : 0.551
Stream size                 : 22.6 GiB (86%)
Language                    : English
Default                     : No
Forced                      : No

Audio #1
ID                          : 2
Format                      : AC-3
Format/Info                 : Audio Coding 3
Commercial name             : Dolby Digital
Codec ID                    : A_AC3
Duration                    : 1 h 58 min
Bit rate mode               : Constant
Bit rate                    : 640 kb/s
Channel(s)                  : 6 channels
Channel layout              : L R C LFE Ls Rs
Sampling rate               : 48.0 kHz
Frame rate                  : 31.250 FPS (1536 SPF)
Bit depth                   : 16 bits
Compression mode            : Lossy
Stream size                 : 541 MiB (2%)
Title                       : Dub [License]
Language                    : Russian
Service kind                : Complete Main
Default                     : Yes
Forced                      : Yes

Audio #2
ID                          : 3
Format                      : DTS XLL
Format/Info                 : Digital Theater Systems
Commercial name             : DTS-HD Master Audio
Codec ID                    : A_DTS
Duration                    : 1 h 58 min
Bit rate mode               : Variable
Bit rate                    : 3 976 kb/s
Channel(s)                  : 8 channels
Channel layout              : C L R LFE Lb Rb Lss Rss
Sampling rate               : 48.0 kHz
Frame rate                  : 93.750 FPS (512 SPF)
Bit depth                   : 24 bits
Compression mode            : Lossless
Stream size                 : 3.28 GiB (12%)
Title                       : Original
Language                    : English
Default                     : No
Forced                      : No

Text #1
ID                          : 4
Format                      : UTF-8
Codec ID                    : S_TEXT/UTF8
Codec ID/Info               : UTF-8 Plain Text
Duration                    : 1 h 57 min
Bit rate                    : 1 b/s
Count of elements           : 25
Stream size                 : 1.31 KiB (0%)
Title                       : Forced
Language                    : Russian
Default                     : Yes
Forced                      : Yes

Text #2
ID                          : 5
Format                      : UTF-8
Codec ID                    : S_TEXT/UTF8
Codec ID/Info               : UTF-8 Plain Text
Duration                    : 1 h 57 min
Bit rate                    : 125 b/s
Count of elements           : 1841
Stream size                 : 108 KiB (0%)
Title                       : Full
Language                    : Russian
Default                     : No
Forced                      : No

Text #3
ID                          : 6
Format                      : UTF-8
Codec ID                    : S_TEXT/UTF8
Codec ID/Info               : UTF-8 Plain Text
Duration                    : 1 h 52 min
Bit rate                    : 100 b/s
Count of elements           : 2242
Stream size                 : 82.7 KiB (0%)
Title                       : Full
Language                    : English
Default                     : No
Forced                      : No

Text #4
ID                          : 7
Format                      : UTF-8
Codec ID                    : S_TEXT/UTF8
Codec ID/Info               : UTF-8 Plain Text
Duration                    : 1 h 57 min
Bit rate                    : 100 b/s
Count of elements           : 2365
Stream size                 : 86.5 KiB (0%)
Title                       : SDH
Language                    : English
Default                     : No
Forced                      : No

Text #5
ID                          : 8
Format                      : UTF-8
Codec ID                    : S_TEXT/UTF8
Codec ID/Info               : UTF-8 Plain Text
Duration                    : 1 h 57 min
Bit rate                    : 109 b/s
Count of elements           : 2366
Stream size                 : 94.6 KiB (0%)
Title                       : SDH Colored
Language                    : English
Default                     : No
Forced                      : No

Menu
00:00:00.000                : en:00:00:00.000
00:07:54.724                : en:00:07:54.724
00:13:08.621                : en:00:13:08.621
00:24:59.540                : en:00:24:59.540
00:32:26.236                : en:00:32:26.236
00:37:12.897                : en:00:37:12.897
00:44:43.848                : en:00:44:43.848
00:50:12.468                : en:00:50:12.468
00:57:41.249                : en:00:57:41.249
01:02:31.831                : en:01:02:31.831
01:08:50.752                : en:01:08:50.752
01:15:25.855                : en:01:15:25.855
01:23:04.688                : en:01:23:04.688
01:28:42.567                : en:01:28:42.567
01:37:53.993                : en:01:37:53.993
01:52:54.434                : en:01:52:54.434



Скриншоты:
[+] Всего файлов в раздаче - 1:
Instant.Family.2018.BDREMUX.1080p.seleZen.mkv26.39 GB

Показать еще раздачи по запросу семья:
2019-08-12 U Семья / Family (2018) WEB-DLRip от MegaPeer | iTunes 1.46 GB ↑ 56 ↓ 12
2019-05-01 U Семья по-быстрому / Instant Family (2018) BDRip от Twister & ExKinoRay | Лицензия 1.46 GB ↑ 196 ↓ 59
2019-04-30 U Семья по-быстрому / Instant Family (2018) BDRip 1080p от селезень | Лицензия 1К14.12 GB ↑ 465 ↓ 332
2019-04-30 U Семья по-быстрому / Instant Family (2018) BDRip от MegaPeer | Лицензия 1.46 GB ↑ 207 ↓ 34
2019-04-17 U Семья по-быстрому / Instant Family (2018) HDRip от Scarabey | HDRezka Studio 1.40 GB ↑ 170 ↓ 11
2019-04-16 U Семья по-быстрому / Instant Family (2018) BDRip 1080p | HDRezka Studio 9.35 GB ↑ 150 ↓ 121
2019-04-15 U Семья по-быстрому / Instant Family (2018) BDRip от Dalemake | HDrezka Studio 1.46 GB ↑ 1211 ↓ 181

Отзывы
Зарегистрируйтесь чтобы добавить комментарий.
Обратная связь
Copyleft ©