↑↓Torrent.by
Поиск
Логин: Регистрация
Пароль: Восстановить пароль
Загрузка...

Гости (2018) WEB-DLRip от Portablius | iTunes

Скачать gosti-2018-web-dlrip-ot-portablius-itunes.torrent
U Магнитная ссылка Размер: 744.79 MB Раздают: 61 Качают: 19 Добавлен: 2019-05-01 07:13:47
Гости (2018) WEB-DLRip от Portablius | iTunes

Название: Гости
Год выхода: 2018
Жанр: Ужасы, триллер
Режиссер: Евгений Абызов
В ролях: Юрий Чурсин, Ангелина Стречина, Михаил Мещеряков, Анастасия Уколова, Анар Халилов, Евгений Егоров, Марина Панферова, Иван Верховых, Мария Лисовая

О фильме: Юная Катя знакомится с веселой компанией приезжих ребят, у которых есть специфическое развлечение — устраивать вечеринки в чужих пустующих домах. И Катя знает подходящее место: старинная дача на побережье, хозяин которой давно уехал. Уединенно расположенный дом, в котором в начале прошлого века был спиритический салон, кажется всем отличным вариантом. В разгар вечеринки появляется тот, кого Катя никак не ожидала увидеть: таинственный хозяин дома… Человек, которого она любила. Человек, находящийся во власти потусторонних сил.

Страна: Россия
Студия: Enjoy Movies
Продолжительность: 01:23:56
Перевод: Русский | iTunes
Субтитры: нет

Файл
Кодек: XviD
Качество: WEB-DLRip
Видео: 720x304 (2.37:1), 25 fps, XviD build 73 ~1102 kbps avg, 0.20 bit/pixel
Звук: 48 kHz, MPEG Layer 3, 2 ch, ~128.00 kbps avg


[+] MediaInfo
General
Complete name               : Gosti.2018.WEB-DLRip.Portablius.avi
Format                      : AVI
Format/Info                 : Audio Video Interleave
File size                   : 745 MiB
Duration                    : 1 h 23 min
Overall bit rate            : 1 241 kb/s
Writing application         : VirtualDubMod 1.5.10.3 | www.virtualdub-fr.org || (build 2550/release)
Writing library             : VirtualDubMod build 2550/release

Video
ID                          : 0
Format                      : MPEG-4 Visual
Format profile              : Advanced Simple@L5
Format settings             : BVOP1 / Custom Matrix
Format settings, BVOP       : 1
Format settings, QPel       : No
Format settings, GMC        : No warppoints
Format settings, Matrix     : Custom
Codec ID                    : XVID
Codec ID/Hint               : XviD
Duration                    : 1 h 23 min
Bit rate                    : 1 103 kb/s
Width                       : 720 pixels
Height                      : 304 pixels
Display aspect ratio        : 2.35:1
Frame rate                  : 25.000 FPS
Color space                 : YUV
Chroma subsampling          : 4:2:0
Bit depth                   : 8 bits
Scan type                   : Progressive
Compression mode            : Lossy
Bits/(Pixel*Frame)          : 0.202
Stream size                 : 662 MiB (89%)
Writing library             : XviD 73

Audio
ID                          : 1
Format                      : MPEG Audio
Format version              : Version 1
Format profile              : Layer 3
Codec ID                    : 55
Codec ID/Hint               : MP3
Duration                    : 1 h 23 min
Bit rate mode               : Constant
Bit rate                    : 128 kb/s
Channel(s)                  : 2 channels
Sampling rate               : 48.0 kHz
Frame rate                  : 41.667 FPS (1152 SPF)
Compression mode            : Lossy
Stream size                 : 76.8 MiB (10%)
Alignment                   : Aligned on interleaves
Interleave, duration        : 40  ms (1.00 video frame)
Interleave, preload duratio : 504  ms
Writing library             : LAME3.99r
Encoding settings           : -m s -V 4 -q 2 -lowpass 17 -b 128




Скриншоты:
[+] Всего файлов в раздаче - 1:
Gosti.2018.WEB-DLRip.Portablius.avi744.79 MB

Показать еще раздачи по запросу гости:
2019-07-06 U Гости (2019) BDRip-AVC от New-Team 745.79 MB ↑ 36 ↓ 13
2019-07-06 U Гости (2019) BDRip 1080p | Лицензия 7.06 GB ↑ 110 ↓ 57
2019-07-04 U Гости (2019) BDRip-AVC от New-Team 1.46 GB ↑ 182 ↓ 70
2019-07-04 U Гости (2018) BDRip | Лицензия 1.45 GB ↑ 289 ↓ 62
2019-04-30 U Гости (2018) WEB-DLRip-AVC | iTunes 742.72 MB ↑ 106 ↓ 29
2019-04-29 U Гости (2018) WEB-DL 1080p | iTunes 2.91 GB ↑ 213 ↓ 140
2018-01-28 U К 80-летию Владимира Высоцкого. В гости к Богу не бывает опозданий (2018) HDTV 1080i от NNMClub 4.32 GB ↑ 44 ↓ 26

Отзывы
Зарегистрируйтесь чтобы добавить комментарий.
Обратная связь
Copyleft ©