↑↓Torrent.by
Поиск
Логин: Регистрация
Пароль: Восстановить пароль
Загрузка...

Балканский рубеж (2019) WEB-DLRip от GeneralFilm | iTunes

Скачать balkanskiy-rubezh-2019-web-dlrip-ot-generalfilm-itunes.torrent
U Магнитная ссылка Размер: 1.46 GB Раздают: 802 Качают: 599 Добавлен: 2019-05-02 10:31:14
Балканский рубеж (2019) WEB-DLRip от GeneralFilm | iTunes

Оригинальное название: Балканский рубеж
Год выпуска: 2019
Жанр:  Боевик, драма
Выпущено: Россия, Сербия, «Кинокомпания Блесс-Фильм» (Россия), «Апгрейд Вижн» (Россия), «ARCHANGEL STUDIOS» (Сербия)
Режиссер: Андрей Волгин
В ролях: Антон Пампушный, Гоша Куценко, Милош Бикович, Милена Радулович, Гойко Митич, Равшана Куркова, Дмитрий Фрид, Александр Сречкович, Светлана Чуйкина, Миодраг Радонич, Никола Ранделович, Эмир Кустурица, Кирилл Полухин, Нодар Джанелидзе, Сергей Марин, Никита Кологривый, Александар Радойчич, Александар Лазич, Роман Курцын, Ефим Петрунин, Роман Воронцов, Анвар Халилулаев, Всеволод Яшкин, Даниел Ковачевич, Лада Имамович, Данила Дедовец, Василиса Немцова, Аня Алач, Михаил Хмуров, Константин Самоуков, Срджан Тодорович, Кирилл Быркин, Дмитрий Вяткин, Бранка Пуйич, Вероника Волоха, Добрила Стойнич, Олег Морозов, Джордже Маркович

О фильме: Югославия. 1999 год. Российская спецгруппа получает приказ взять под контроль аэродром Слатина в Косово и удерживать его до прихода подкрепления. Но этот стратегический объект крайне важен албанскому полевому командиру и натовским генералам. Группа вынуждена принять неравный бой с террористами. К аэродрому устремляются российские миротворцы и силы НАТО. Мир вновь близок к большой войне. Но командиру спецгруппы Андрею Шаталову не до политики: в аэропорту среди заложников его любимая девушка Ясна...

Качество: WEB-DLRip
Видео: XviD build 73, 720x304 (2.37:1), 24.000 fps, 1185 Kbps (0.226 bit/pixel)
Аудио: 48.0 kHz, AC3 2ch, 192 kbps
Продолжительность: 02:30:35
Перевод: Не требуется [iTunes]
Cубтитры: нет

Релиз:


[+] MediaInfo
General
Complete name               : D:RazdachiBalkanskij.Rubezh.2019.WEB-DLRip.GeneralFilm.avi
Format                      : AVI
Format/Info                 : Audio Video Interleave
File size                   : 1.46 GiB
Duration                    : 2 h 30 min
Overall bit rate            : 1 386 kb/s
Writing application         : VirtualDubMod 1.5.10.3 | www.virtualdub-fr.org || (build 2550/release)
Writing library             : VirtualDubMod build 2550/release

Video
ID                          : 0
Format                      : MPEG-4 Visual
Format profile              : Advanced Simple@L5
Format settings             : BVOP1 / Custom Matrix
Format settings, BVOP       : 1
Format settings, QPel       : No
Format settings, GMC        : No warppoints
Format settings, Matrix     : Custom
Codec ID                    : XVID
Codec ID/Hint               : XviD
Duration                    : 2 h 30 min
Bit rate                    : 1 185 kb/s
Width                       : 720 pixels
Height                      : 304 pixels
Display aspect ratio        : 2.35:1
Frame rate                  : 24.000 FPS
Color space                 : YUV
Chroma subsampling          : 4:2:0
Bit depth                   : 8 bits
Scan type                   : Progressive
Compression mode            : Lossy
Bits/(Pixel*Frame)          : 0.226
Stream size                 : 1.25 GiB (85%)
Writing library             : XviD 73

Audio
ID                          : 1
Format                      : AC-3
Format/Info                 : Audio Coding 3
Commercial name             : Dolby Digital
Codec ID                    : 2000
Duration                    : 2 h 30 min
Bit rate mode               : Constant
Bit rate                    : 192 kb/s
Channel(s)                  : 2 channels
Channel layout              : L R
Sampling rate               : 48.0 kHz
Frame rate                  : 31.250 FPS (1536 SPF)
Bit depth                   : 16 bits
Compression mode            : Lossy
Stream size                 : 207 MiB (14%)
Alignment                   : Split accross interleaves
Interleave, duration        : 42  ms (1.00 video frame)
Interleave, preload duratio : 500  ms
Service kind                : Complete Main



Скриншоты:
[+] Всего файлов в раздаче - 1:
Balkanskij.Rubezh.2019.WEB-DLRip.GeneralFilm.avi1.46 GB

Показать еще раздачи по запросу балканский:
Вчера U Балканский рубеж (2019) WEB-DLRip 1080p от Талямбы | 60 fps | iTunes 13.02 GB ↑ 39 ↓ 35
2019-05-05 U Балканский рубеж (2019) WEB-DLRip от Scarabey | iTunes 2.17 GB ↑ 160 ↓ 31
2019-05-05 U Балканский рубеж (2019) WEB-DLRip от Scarabey | iTunes 1.45 GB ↑ 169 ↓ 55
2019-05-04 U Балканский рубеж (2019) WEB-DLRip от Portablius | iTunes 803.63 MB ↑ 61 ↓ 18
2019-05-03 U Балканский рубеж (2019) WEB-DLRip 720p | iTunes 2.99 GB ↑ 234 ↓ 140
2019-05-03 U Балканский рубеж (2019) WEB-DLRip от Generalfilm | КПК | iTunes 571.37 MB ↑ 63 ↓ 21
2019-05-03 U Балканский рубеж (2019) WEB-DLRip-AVC от ExKinoRay | iTunes 1.07 GB ↑ 149 ↓ 19

Отзывы
Зарегистрируйтесь чтобы добавить комментарий.
Обратная связь
Copyleft ©