↑↓Torrent.by
Поиск
Логин: Регистрация
Пароль: Восстановить пароль
Загрузка...

Балканский рубеж (2019) WEB-DLRip-AVC от GeneralFilm | iTunes

Скачать balkanskiy-rubezh-2019-web-dlrip-avc-ot-generalfilm-itunes.torrent
U Магнитная ссылка Размер: 2.51 GB Раздают: 546 Качают: 254 Добавлен: 2019-05-02 10:31:26
Балканский рубеж (2019) WEB-DLRip-AVC от GeneralFilm | iTunes

Год выпуска: 2019
Жанр:  Боевик, драма
Выпущено: Россия, Сербия, «Кинокомпания Блесс-Фильм» (Россия), «Апгрейд Вижн» (Россия), «ARCHANGEL STUDIOS» (Сербия)
Режиссер: Андрей Волгин
В ролях: Антон Пампушный, Гоша Куценко, Милош Бикович, Милена Радулович, Гойко Митич, Равшана Куркова, Дмитрий Фрид, Александр Сречкович, Светлана Чуйкина, Миодраг Радонич, Никола Ранделович, Эмир Кустурица, Кирилл Полухин, Нодар Джанелидзе, Сергей Марин, Никита Кологривый, Александар Радойчич, Александар Лазич, Роман Курцын, Ефим Петрунин, Роман Воронцов, Анвар Халилулаев, Всеволод Яшкин, Даниел Ковачевич, Лада Имамович, Данила Дедовец, Василиса Немцова, Аня Алач, Михаил Хмуров, Константин Самоуков, Срджан Тодорович, Кирилл Быркин, Дмитрий Вяткин, Бранка Пуйич, Вероника Волоха, Добрила Стойнич, Олег Морозов, Джордже Маркович

О фильме: Югославия. 1999 год. Российская спецгруппа получает приказ взять под контроль аэродром Слатина в Косово и удерживать его до прихода подкрепления. Но этот стратегический объект крайне важен албанскому полевому командиру и натовским генералам. Группа вынуждена принять неравный бой с террористами. К аэродрому устремляются российские миротворцы и силы НАТО. Мир вновь близок к большой войне. Но командиру спецгруппы Андрею Шаталову не до политики: в аэропорту среди заложников его любимая девушка Ясна...

Качество: WEB-DLRip-AVC
Видео: MPEG-4 AVC,  2000 Кбит/с, 1024х432, 24 fps
Аудио: Русский (AC3, 6 ch, 384 Кбит/с)
Продолжительность: 02:30:35
Перевод: Не требуется [iTunes]
Субтитры: нет

Релиз:


[+] MediaInfo

Общее
Уникальный идентификатор                 : 204739311422006911219265692305775951069 (0x9A075B68AEDCC5BEB2A364BBF5407CDD)
Полное имя                               : D:Balkanskij rubezh.WEB-DLRip.(AVC).GeneralFilm.mkv
Формат                                   : Matroska
Версия формата                           : Version 2
Размер файла                             : 2,51 Гбайт
Продолжительность                        : 2 ч. 30 м.
Общий поток                              : 2385 Кбит/сек
Дата кодирования                         : UTC 2019-05-02 01:23:19
Программа кодирования                    : mkvmerge v7.8.0 ('River Man') 32bit built on Apr  3 2015 12:11:22
Библиотека кодирования                   : libebml v1.3.1 + libmatroska v1.4.2

Видео
Идентификатор                            : 1
Формат                                   : AVC
Формат/Информация                        : Advanced Video Codec
Профиль формата                          : High@L4.1
Параметр CABAC формата                   : Да
Параметр ReFrames формата                : 9 кадров
Идентификатор кодека                     : V_MPEG4/ISO/AVC
Продолжительность                        : 2 ч. 30 м.
Битрейт                                  : 2000 Кбит/сек
Ширина                                   : 1024 пикселя
Высота                                   : 432 пикселя
Соотношение сторон                       : 2,40:1
Режим частоты кадров                     : Постоянный
Частота кадров                           : 24,000 кадра/сек
Цветовое пространство                    : YUV
Субдискретизация насыщенности            : 4:2:0
Битовая глубина                          : 8 бит
Тип развёртки                            : Прогрессивная
Бит/(Пиксели*Кадры)                      : 0.188
Размер потока                            : 2,05 Гбайт (82%)
Библиотека кодирования                   : x264 core 146 r2538 121396c
Настройки программы                      : cabac=1 / ref=9 / deblock=1:-2:-1 / analyse=0x3:0x113 / me=umh / subme=9 / psy=1 / psy_rd=1.00:0.15 / mixed_ref=1 / me_range=32 / chroma_me=1 / trellis=2 / 8x8dct=1 / cqm=0 / deadzone=21,11 / fast_pskip=0 / chroma_qp_offset=-3 / threads=18 / lookahead_threads=3 / sliced_threads=0 / nr=0 / decimate=1 / interlaced=0 / bluray_compat=0 / constrained_intra=0 / bframes=9 / b_pyramid=2 / b_adapt=2 / b_bias=0 / direct=3 / weightb=1 / open_gop=0 / weightp=2 / keyint=250 / keyint_min=23 / scenecut=40 / intra_refresh=0 / rc_lookahead=40 / rc=2pass / mbtree=0 / bitrate=2000 / ratetol=1.0 / qcomp=0.60 / qpmin=0 / qpmax=69 / qpstep=4 / cplxblur=20.0 / qblur=0.5 / vbv_maxrate=14000 / vbv_bufsize=14000 / nal_hrd=none / filler=0 / ip_ratio=1.40 / pb_ratio=1.30 / aq=2:1.00
Default                                  : Да
Forced                                   : Нет
Цветовой диапазон                        : Limited
Основные цвета                           : BT.709
Характеристики трансфера                 : BT.709
Коэффициенты матрицы                     : BT.709

Аудио
Идентификатор                            : 2
Формат                                   : AC-3
Формат/Информация                        : Audio Coding 3
Расширение режима                        : CM (complete main)
Параметр Endianness формата              : Big
Идентификатор кодека                     : A_AC3
Продолжительность                        : 2 ч. 30 м.
Вид битрейта                             : Постоянный
Битрейт                                  : 384 Кбит/сек
Каналы                                   : 6 каналов
Расположение каналов                     : Front: L C R, Side: L R, LFE
Частота                                  : 48,0 КГц
Частота кадров                           : 31,250 кадров/сек (1536 spf)
Битовая глубина                          : 16 бит
Метод сжатия                             : С потерями
Размер потока                            : 414 Мбайт (16%)
Default                                  : Да
Forced                                   : Нет




Скриншоты:
[+] Всего файлов в раздаче - 1:
Balkanskij rubezh.WEB-DLRip.(AVC).GeneralFilm.mkv2.51 GB

Показать еще раздачи по запросу балканский:
2019-05-05 U Балканский рубеж (2019) WEB-DLRip от Scarabey | iTunes 2.17 GB ↑ 111 ↓ 24
2019-05-05 U Балканский рубеж (2019) WEB-DLRip от Scarabey | iTunes 1.45 GB ↑ 130 ↓ 49
2019-05-04 U Балканский рубеж (2019) WEB-DLRip от Portablius | iTunes 803.63 MB ↑ 52 ↓ 14
2019-05-03 U Балканский рубеж (2019) WEB-DLRip 720p | iTunes 2.99 GB ↑ 109 ↓ 130
2019-05-03 U Балканский рубеж (2019) WEB-DLRip от Generalfilm | КПК | iTunes 571.37 MB ↑ 58 ↓ 23
2019-05-03 U Балканский рубеж (2019) WEB-DLRip-AVC от ExKinoRay | iTunes 1.07 GB ↑ 143 ↓ 18
2019-05-03 U Балканский рубеж (2019) WEB-DLRip-AVC от Files-x | iTunes 2.72 GB ↑ 162 ↓ 59

Отзывы
Зарегистрируйтесь чтобы добавить комментарий.
Обратная связь
Copyleft ©