↑↓Torrent.by
Поиск
Логин: Регистрация
Пароль: Восстановить пароль
Загрузка...

Балканский рубеж (2019) WEB-DLRip от GeneralFilm | iTunes

Скачать balkanskiy-rubezh-2019-web-dlrip-ot-generalfilm-itunes.torrent
U Магнитная ссылка Размер: 2.00 GB Раздают: 369 Качают: 163 Добавлен: 2019-05-02 10:31:37
Балканский рубеж (2019) WEB-DLRip от GeneralFilm | iTunes

Год выпуска: 2019
Жанр:  Боевик, драма
Выпущено: Россия, Сербия, «Кинокомпания Блесс-Фильм» (Россия), «Апгрейд Вижн» (Россия), «ARCHANGEL STUDIOS» (Сербия)
Режиссер: Андрей Волгин
В ролях: Антон Пампушный, Гоша Куценко, Милош Бикович, Милена Радулович, Гойко Митич, Равшана Куркова, Дмитрий Фрид, Александр Сречкович, Светлана Чуйкина, Миодраг Радонич, Никола Ранделович, Эмир Кустурица, Кирилл Полухин, Нодар Джанелидзе, Сергей Марин, Никита Кологривый, Александар Радойчич, Александар Лазич, Роман Курцын, Ефим Петрунин, Роман Воронцов, Анвар Халилулаев, Всеволод Яшкин, Даниел Ковачевич, Лада Имамович, Данила Дедовец, Василиса Немцова, Аня Алач, Михаил Хмуров, Константин Самоуков, Срджан Тодорович, Кирилл Быркин, Дмитрий Вяткин, Бранка Пуйич, Вероника Волоха, Добрила Стойнич, Олег Морозов, Джордже Маркович

О фильме: Югославия. 1999 год. Российская спецгруппа получает приказ взять под контроль аэродром Слатина в Косово и удерживать его до прихода подкрепления. Но этот стратегический объект крайне важен албанскому полевому командиру и натовским генералам. Группа вынуждена принять неравный бой с террористами. К аэродрому устремляются российские миротворцы и силы НАТО. Мир вновь близок к большой войне. Но командиру спецгруппы Андрею Шаталову не до политики: в аэропорту среди заложников его любимая девушка Ясна...

Качество: WEB-DLRip
Видео: XviD, 1502 Кбит/с, 720х304, 24 fps
Аудио: Русский (AC3, 6 ch, 384 Кбит/с)
Продолжительность: 02:30:35
Перевод: Не требуется [iTunes]
Субтитры: нет

Релиз:


[+] MediaInfo

Общее
Полное имя                               : D:Balkanskij rubezh.WEB-DLRip.GeneralFilm.avi
Формат                                   : AVI
Формат/Информация                        : Audio Video Interleave
Профиль формата                          : OpenDML
Размер файла                             : 2,00 Гбайт
Продолжительность                        : 2 ч. 30 м.
Общий поток                              : 1898 Кбит/сек
Программа кодирования                    : VirtualDubMod 1.5.10.3 | www.virtualdub-fr.org || (build 2550/release)
Библиотека кодирования                   : VirtualDubMod build 2550/release

Видео
Идентификатор                            : 0
Формат                                   : MPEG-4 Visual
Профиль формата                          : Advanced Simple@L5
Параметр BVOP формата                    : 1
Параметр QPel формата                    : Нет
Параметр GMC формата                     : Без точки перехода
Параметр матрицы формата                 : Выборочная
Идентификатор кодека                     : XVID
Идентификатор кодека/Подсказка           : XviD
Продолжительность                        : 2 ч. 30 м.
Битрейт                                  : 1502 Кбит/сек
Ширина                                   : 720 пикселей
Высота                                   : 304 пикселя
Соотношение сторон                       : 2,35:1
Частота кадров                           : 24,000 кадра/сек
Цветовое пространство                    : YUV
Субдискретизация насыщенности            : 4:2:0
Битовая глубина                          : 8 бит
Тип развёртки                            : Прогрессивная
Метод сжатия                             : С потерями
Бит/(Пиксели*Кадры)                      : 0.286
Размер потока                            : 1,58 Гбайт (79%)
Библиотека кодирования                   : XviD 1.2.1 (UTC 2008-12-04)

Аудио
Идентификатор                            : 1
Формат                                   : AC-3
Формат/Информация                        : Audio Coding 3
Расширение режима                        : CM (complete main)
Параметр Endianness формата              : Big
Идентификатор кодека                     : 2000
Продолжительность                        : 2 ч. 30 м.
Вид битрейта                             : Постоянный
Битрейт                                  : 384 Кбит/сек
Каналы                                   : 6 каналов
Расположение каналов                     : Front: L C R, Side: L R, LFE
Частота                                  : 48,0 КГц
Частота кадров                           : 31,250 кадров/сек (1536 spf)
Битовая глубина                          : 16 бит
Метод сжатия                             : С потерями
Размер потока                            : 414 Мбайт (20%)
Выравнивание                             : Разделение по промежуткам
Продолжительность промежутка             : 42  мс. (1,00 видеокадр)
Время предзагрузки промежутка            : 500  мс.




Скриншоты:
[+] Всего файлов в раздаче - 1:
Balkanskij rubezh.WEB-DLRip.GeneralFilm.avi2.00 GB

Показать еще раздачи по запросу балканский:
2019-05-05 U Балканский рубеж (2019) WEB-DLRip от Scarabey | iTunes 2.17 GB ↑ 161 ↓ 27
2019-05-05 U Балканский рубеж (2019) WEB-DLRip от Scarabey | iTunes 1.45 GB ↑ 170 ↓ 54
2019-05-04 U Балканский рубеж (2019) WEB-DLRip от Portablius | iTunes 803.63 MB ↑ 61 ↓ 18
2019-05-03 U Балканский рубеж (2019) WEB-DLRip 720p | iTunes 2.99 GB ↑ 226 ↓ 140
2019-05-03 U Балканский рубеж (2019) WEB-DLRip от Generalfilm | КПК | iTunes 571.37 MB ↑ 63 ↓ 21
2019-05-03 U Балканский рубеж (2019) WEB-DLRip-AVC от ExKinoRay | iTunes 1.07 GB ↑ 149 ↓ 19
2019-05-03 U Балканский рубеж (2019) WEB-DLRip-AVC от Files-x | iTunes 2.72 GB ↑ 162 ↓ 59

Отзывы
Зарегистрируйтесь чтобы добавить комментарий.
Обратная связь
Copyleft ©