↑↓Torrent.by
Поиск
Логин: Регистрация
Пароль: Восстановить пароль
Загрузка...

100ЯНОВ [01] (2019) WEBRip от GeneralFilm

Скачать 100yanov-01-2019-webrip-ot-generalfilm.torrent
U Магнитная ссылка Размер: 557.34 MB Раздают: 285 Качают: 63 Добавлен: 2019-05-02 10:31:51
100ЯНОВ [01] (2019) WEBRip от GeneralFilm

Оригинальное название: 100ЯНОВ
Год выпуска: 2019
Жанр:  Комедия, юмор, скетч-шоу
Выпущено: Россия, ВГТРК, М-Продакшн Медиа
Режиссер: Юрий Стоянов
В ролях: Юрий Стоянов, Сергей Шнуров, Владимир Меньшов, Мария Аронова, Виктор Сухоруков, Юлия Ауг, Михаил Ефремов, Игорь Золотовицкий, Пётр Красилов, Андрей Мерзликин, Дмитрий Певцов, Григорий Сиятвинда, Глафира Тарханова, Сергей Угрюмов, Ян Цапник

О фильме: Юмористическое шоу, в котором мастер пародий и перевоплощений, народный артист России Юрий Стоянов, продолжая традиции знаменитого и любимого миллионами "Городка", предложит зрителю целую галерею незабываемых и гомерически смешных персонажей. Инспектор ГИБДД, квартирный маклер, телепродюсер, продавец модного салона, великий русский поэт, еврейская мама, мисс Ялта-1977, начальник Штирлица Мюллер, мушкетер Портос – кого только здесь нет! Действительно, он – столикий Стоянов! Вместе с ним удивлять зрителя будет целая плеяда замечательных артистов. И можно быть уверенным, что многие из них предстанут перед зрителем в совершенно новом и неожиданном амплуа.

Качество: WEBRip
Видео: XviD build 73, 720x400 (16:9), 25.000 fps, ~ 1330 Kbps (~ 0.185 bit/pixel)
Аудио: 48.0 kHz, AC3, 2/0 ch, 192 kbps
Продолжительность: 00:50:56
Перевод: Не требуется [Русский]
Cубтитры: нет

Релиз:
[+] MediaInfo
General
Complete name               : D:Razdachi100JANOV.WEBRip.GeneralFilm100JANOV.e01.avi
Format                      : AVI
Format/Info                 : Audio Video Interleave
File size                   : 557 MiB
Duration                    : 50 min 56 s
Overall bit rate            : 1 530 kb/s
Writing application         : VirtualDubMod 1.5.10.3 | www.virtualdub-fr.org || (build 2550/release)
Writing library             : VirtualDubMod build 2550/release

Video
ID                          : 0
Format                      : MPEG-4 Visual
Format profile              : Advanced Simple@L5
Format settings             : BVOP1 / Custom Matrix
Format settings, BVOP       : 1
Format settings, QPel       : No
Format settings, GMC        : No warppoints
Format settings, Matrix     : Custom
Codec ID                    : XVID
Codec ID/Hint               : XviD
Duration                    : 50 min 56 s
Bit rate                    : 1 328 kb/s
Width                       : 720 pixels
Height                      : 400 pixels
Display aspect ratio        : 16:9
Frame rate                  : 25.000 FPS
Color space                 : YUV
Chroma subsampling          : 4:2:0
Bit depth                   : 8 bits
Scan type                   : Progressive
Compression mode            : Lossy
Bits/(Pixel*Frame)          : 0.184
Stream size                 : 484 MiB (87%)
Writing library             : XviD 73

Audio
ID                          : 1
Format                      : AC-3
Format/Info                 : Audio Coding 3
Commercial name             : Dolby Digital
Codec ID                    : 2000
Duration                    : 50 min 56 s
Bit rate mode               : Constant
Bit rate                    : 192 kb/s
Channel(s)                  : 2 channels
Channel layout              : L R
Sampling rate               : 48.0 kHz
Frame rate                  : 31.250 FPS (1536 SPF)
Bit depth                   : 16 bits
Compression mode            : Lossy
Stream size                 : 70.0 MiB (13%)
Alignment                   : Split accross interleaves
Interleave, duration        : 40  ms (1.00 video frame)
Interleave, preload duratio : 500  ms
Service kind                : Complete Main



Скриншоты:
[+] Всего файлов в раздаче - 1:
100JANOV.e01.avi557.34 MB

Отзывы
Зарегистрируйтесь чтобы добавить комментарий.
Обратная связь
Copyleft ©