↑↓Torrent.by
Поиск
Логин: Регистрация
Пароль: Восстановить пароль
Загрузка...

Укрощение свекрови (2019) HDTVRip от GeneralFilm

Скачать ukroschenie-svekrovi-2019-hdtvrip-ot-generalfilm.torrent
U Магнитная ссылка Размер: 1.45 GB Раздают: 139 Качают: 43 Добавлен: 2019-05-02 10:33:08
Укрощение свекрови (2019) HDTVRip от GeneralFilm

Оригинальное название: Укрощение свекрови
Год выпуска: 2019
Жанр:  Комедия, мелодрама
Выпущено: Россия, «Арт-Экспресс»
Режиссер: Владимир Басов мл., Ольга Басова
В ролях: Елена Валюшкина, Елизавета Арзамасова, Артём Крылов, Кристина Бабушкина, Владимир Стержаков, Теймураз Тания, Алексей Шевченков, Александра Скачкова, Александр Сотников, Владимир Басов (младший), Алексей Травкин, Сабина Аскарова, Дарья Филиппова (II), Мария Притыка, Максим Казаков

О фильме: Инга и Андрей были бы самой счастливой парой, если бы не одно «но». Мама! А точнее Анна Михайловна — невыносимая свекровь и домашний тиран. Жить в отдельной квартире у молодых супругов никак не получается — мама требует бесконечного внимания и заботы. А поскольку у мамы больное сердце, Андрей потакает всем ее капризам. И конечно, невестку «мама» не переносит. Однажды измученной Инге приходит в голову идея, как раз и навсегда укротить свекровь: ведь все познается в сравнении. И Инга решает… найти себе замену. Причем замену ужасающую — с тремя детьми и бывшим мужем-уголовником. Сыграть новую избранницу Андрея должна будет тетка Инги — Алиса. Однако все идет не по плану…

Качество: HDTVRip
Видео: XviD build 73, 720x400 (16:9), 25.000 fps, 1854 Kbps (0.257 bit/pixel)
Аудио: 48.0 kHz, AC3, 2/0 ch, 192 kbps
Продолжительность: 01:41:17
Перевод: Не требуется [Русский]
Cубтитры: нет

Релиз:


[+] MediaInfo
General
Complete name               : D:RazdachiUkroshenie.Svekrovi.2019.HDTVRip.GrneralFilm.avi
Format                      : AVI
Format/Info                 : Audio Video Interleave
File size                   : 1.45 GiB
Duration                    : 1 h 41 min
Overall bit rate            : 2 056 kb/s
Writing application         : VirtualDubMod 1.5.10.3 | www.virtualdub-fr.org || (build 2550/release)
Writing library             : VirtualDubMod build 2550/release

Video
ID                          : 0
Format                      : MPEG-4 Visual
Format profile              : Advanced Simple@L5
Format settings             : BVOP1 / Custom Matrix
Format settings, BVOP       : 1
Format settings, QPel       : No
Format settings, GMC        : No warppoints
Format settings, Matrix     : Custom
Codec ID                    : XVID
Codec ID/Hint               : XviD
Duration                    : 1 h 41 min
Bit rate                    : 1 854 kb/s
Width                       : 720 pixels
Height                      : 400 pixels
Display aspect ratio        : 16:9
Frame rate                  : 25.000 FPS
Color space                 : YUV
Chroma subsampling          : 4:2:0
Bit depth                   : 8 bits
Scan type                   : Progressive
Compression mode            : Lossy
Bits/(Pixel*Frame)          : 0.257
Stream size                 : 1.31 GiB (90%)
Writing library             : XviD 73

Audio
ID                          : 1
Format                      : AC-3
Format/Info                 : Audio Coding 3
Commercial name             : Dolby Digital
Codec ID                    : 2000
Duration                    : 1 h 41 min
Bit rate mode               : Constant
Bit rate                    : 192 kb/s
Channel(s)                  : 2 channels
Channel layout              : L R
Sampling rate               : 48.0 kHz
Frame rate                  : 31.250 FPS (1536 SPF)
Bit depth                   : 16 bits
Compression mode            : Lossy
Stream size                 : 139 MiB (9%)
Alignment                   : Split accross interleaves
Interleave, duration        : 40  ms (1.00 video frame)
Interleave, preload duratio : 500  ms
Service kind                : Complete Main



Скриншоты:
[+] Всего файлов в раздаче - 1:
Ukroshenie.Svekrovi.2019.HDTVRip.GrneralFilm.avi1.45 GB

Показать еще раздачи по запросу укрощение:
2019-05-08 U Укрощение свекрови (2019) HDTVRip от Portablius 747.12 MB ↑ 117 ↓ 8
2019-05-02 U Укрощение свекрови (2019) HDTVRip 720p от ExKinoRay 2.97 GB ↑ 168 ↓ 68
2019-05-02 U Укрощение свекрови (2019) WEBRip-AVC от Files-x 1.37 GB ↑ 158 ↓ 55
2019-05-02 U Укрощение свекрови (2019) WEBRip от Files-x 1.37 GB ↑ 384 ↓ 85
2014-11-10 U Укрощение строптивого / Il Bisbetico Domato (1980) BDRip 720p от NNNB | 60 fps 4.65 GB ↑ 217 ↓ 23
2013-11-03 U Укрощение строптивых (2009) BDRip 1080p 5.53 GB ↑ 43 ↓ 32
2013-10-13 U Укрощение строптивого / Il Bisbetico Domato (1980) BDRip-AVC 1.57 GB ↑ 148 ↓ 10

Отзывы
Зарегистрируйтесь чтобы добавить комментарий.
Обратная связь
Copyleft ©