↑↓Torrent.by
Поиск
Логин: Регистрация
Пароль: Восстановить пароль
Загрузка...

Отпуск за период службы [01-04 из 04] (2018) WEBRip от Files-x

Скачать otpusk-za-period-sluzhby-01-04-iz-2018-webrip-ot-files-x.torrent
U Магнитная ссылка Размер: 2.40 GB Раздают: 163 Качают: 53 Добавлен: 2019-05-03 08:16:39
Отпуск за период службы  [01-04 из 04]  (2018) WEBRip  от Files-x

Оригинальное название: Отпуск за период службы
Год выпуска: 2018
Жанр:  Боевик, криминал
Режиссер: Станислав Мареев
В ролях: Игорь Новосёлов (II), Кристина Борейко, Оксана Чивелёва, Александр Фисенко, Павел Южаков-Харланчук

О фильме Сержант-контрактник Игорь Беликов берет отпуск, чтобы навестить больного отца. По дороге он случайно становится пешкой в игре криминальных структур. Спасаясь от неожиданного нападения, Игорь убивает нескольких бандитов и угоняет фургон, в котором находится ценный груз. За Игорем начинается «охота». Полиция также идет по его следу. Выясняется, что отец Игоря не болен. Что же заставило героя взять отпуск и куда он направляется?

Выпущено: Россия
Студия:    WeiT Media
Продолжительность: 4 x ~ 00:46:00
Перевод: Не требуется

Файл
Качество: WEBRip
Видео: XviD, ~ 1600 Кбит/с, 720x400
Аудио: AC3, 2 ch, 192 Кбит/с

Релиз:


[+] MediaInfo
General
Complete name                    : C:UsersuserDownloadsVideo1. Отпуск за период службы.2019.WEB-DLRip. Files-x.avi
Format                           : AVI
Format/Info                      : Audio Video Interleave
File size                        : 606 MiB
Duration                         : 47mn 1s
Overall bit rate                 : 1 802 Kbps
Writing application              : VirtualDubMod 1.5.10.3 | www.virtualdub-fr.org || (build 2550/release)
Writing library                  : VirtualDubMod build 2550/release

Video
ID                               : 0
Format                           : MPEG-4 Visual
Format profile                   : Advanced Simple@L5
Format settings, BVOP            : 1
Format settings, QPel            : No
Format settings, GMC             : No warppoints
Format settings, Matrix          : Custom
Codec ID                         : XVID
Codec ID/Hint                    : XviD
Duration                         : 47mn 1s
Bit rate                         : 1 600 Kbps
Width                            : 720 pixels
Height                           : 400 pixels
Display aspect ratio             : 16:9
Frame rate                       : 25.000 fps
Color space                      : YUV
Chroma subsampling               : 4:2:0
Bit depth                        : 8 bits
Scan type                        : Progressive
Compression mode                 : Lossy
Bits/(Pixel*Frame)               : 0.222
Stream size                      : 538 MiB (89%)
Writing library                  : XviD 73

Audio
ID                               : 1
Format                           : AC-3
Format/Info                      : Audio Coding 3
Mode extension                   : CM (complete main)
Codec ID                         : 2000
Duration                         : 47mn 1s
Bit rate mode                    : Constant
Bit rate                         : 192 Kbps
Channel(s)                       : 2 channels
Channel positions                : Front: L R
Sampling rate                    : 48.0 KHz
Bit depth                        : 16 bits
Compression mode                 : Lossy
Stream size                      : 64.6 MiB (11%)
Alignment                        : Split accross interleaves
Interleave, duration             : 40 ms (1.00 video frame)
Interleave, preload duration     : 500 ms



Скриншоты:
[+] Всего файлов в раздаче - 4:
01. Отпуск за период службы.2019.WEB-DLRip. Files-x.avi605.96 MB
02. Отпуск за период службы.2019.WEB-DLRip. Files-x.avi599.30 MB
03. Отпуск за период службы.2019.WEB-DLRip. Files-x.avi620.24 MB
04. Отпуск за период службы.2019.WEB-DLRip. Files-x.avi628.17 MB

Похожие раздачи по запросу - отпуск:
2018-11-06 U Отпуск / Furlough (2018) BDRip-AVC от OlLanDGroup | HDRezka Studio 1.52 GB ↑ 73 ↓ 20

Отзывы
Зарегистрируйтесь чтобы добавить комментарий.
Обратная связь
Copyleft ©