↑↓Torrent.by
Поиск
Логин: Регистрация
Пароль: Восстановить пароль
Загрузка...

Блуждающая Земля / Liu lang di qiu / The Wandering Earth (2019) WEB-DL-HEVC 1080p | L2, A

Скачать bluzhdayuschaya-zemlya-liu-lang-di-qiu-the-wandering-earth-2019-web-dl-hevc-1080p-l2-a.torrent
U Магнитная ссылка Размер: 3.76 GB Раздают: 80 Качают: 16 Добавлен: 2019-05-03 14:56:06
Блуждающая Земля / Liu lang di qiu / The Wandering Earth (2019) WEB-DL-HEVC 1080p | L2, A

Название: Блуждающая Земля
Оригинальное название: Liu lang di qiu / The Wandering Earth
Год выхода: 2019
Жанр: Фантастика, боевик

Режиссер: Франт Гво

В ролях: Джеки Ву, Цюй Чусяо, Ли Гуанцзе, Нг Ман-Тат, Чжао Цзиньмай, Цюй Цзинцзин, Чжан Ичи, Ян Хаоюй, Аркадий Шароградский, Ли Хунчэнь, Цзян Чжиган, Чжан Хуань, Лэй Цзяинь, Нин Хао, Ван Чжи

О фильме: В ближайшем будущем становится известно, что Солнце скоро погаснет, и Солнечная система будет разрушена. Тогда человечество запускает масштабный проект под названием «Блуждающая Земля», цель которого — с помощью огромных двигателей по всему миру сдвинуть Землю и полететь искать новое пристанище. Через 17 лет путешествия земляне приближаются к Юпитеру. Гравитация гигантской планеты меняет траекторию Земли, вызывает глобальные землетрясения и ставит под угрозу весь проект по выживанию человечества.

Страна: Китай
Продолжительность: 02:05:30
Перевод:
 Любительский (двухголосый) | КОЛОБОК
 Авторский | Андрей Дольский

Файл
Кодек: H.265
Качество: WEB-DL-HEVC 1080p
Видео: HEVC, 1920x752 (2.553), 24.000 fps, 3 002 kb/s
Аудио 1: AC-3, 48.0 kHz, 2 ch, 256 kb/s | RUS (КОЛОБОК)
Аудио 2: AC-3, 48.0 kHz, 2 ch, 256 kb/s | RUS (Андрей Дольский)
Аудио 3: AC-3, 48.0 kHz, 6 ch, 384 kb/s | ENG
Аудио 4: AC-3, 48.0 kHz, 6 ch, 384 kb/s | CHI
Субтитры: Русские, английские, китайские

Семпл


[+] MI
General
Unique ID                                : 242611199836033793605644409073909828523 (0xB68537AB82B370D7A5253FC1CA630BAB)
Complete name                            : The.Wandering.Earth.2019.1080p.WEB-DL.HEVC.mkv
Format                                   : Matroska
Format version                           : Version 4
File size                                : 3.76 GiB
Duration                                 : 2 h 5 min
Overall bit rate                         : 4 284 kb/s
Encoded date                             : UTC 2019-05-02 19:49:19
Writing application                      : mkvmerge v8.3.0 ('Over the Horizon') 64bit
Writing library                          : libebml v1.3.1 + libmatroska v1.4.2

Video
ID                                       : 1
Format                                   : HEVC
Format/Info                              : High Efficiency Video Coding
Format profile                           : Main@L4@Main
Codec ID                                 : V_MPEGH/ISO/HEVC
Duration                                 : 2 h 5 min
Bit rate                                 : 3 002 kb/s
Width                                    : 1 920 pixels
Height                                   : 752 pixels
Display aspect ratio                     : 2.553
Frame rate mode                          : Constant
Frame rate                               : 24.000 FPS
Color space                              : YUV
Chroma subsampling                       : 4:2:0
Bit depth                                : 8 bits
Bits/(Pixel*Frame)                       : 0.087
Stream size                              : 2.63 GiB (70%)
Writing library                          : x265 2.9:[Windows][GCC 8.2.0][64 bit] 8bit+10bit+12bit
Encoding settings                        : cpuid=1111039 / frame-threads=3 / numa-pools=8 / wpp / no-pmode / no-pme / no-psnr / no-ssim / log-level=2 / input-csp=1 / input-res=1920x752 / interlace=0 / total-frames=0 / level-idc=0 / high-tier=1 / uhd-bd=0 / ref=3 / no-allow-non-conformance / no-repeat-headers / annexb / no-aud / no-hrd / info / hash=0 / no-temporal-layers / open-gop / min-keyint=24 / keyint=240 / gop-lookahead=0 / bframes=4 / b-adapt=2 / b-pyramid / bframe-bias=0 / rc-lookahead=20 / lookahead-slices=4 / scenecut=40 / radl=0 / no-intra-refresh / ctu=64 / min-cu-size=8 / no-rect / no-amp / max-tu-size=32 / tu-inter-depth=1 / tu-intra-depth=1 / limit-tu=0 / rdoq-level=0 / dynamic-rd=0.00 / no-ssim-rd / signhide / no-tskip / nr-intra=0 / nr-inter=0 / no-constrained-intra / strong-intra-smoothing / max-merge=2 / limit-refs=3 / no-limit-modes / me=1 / subme=2 / merange=57 / temporal-mvp / weightp / no-weightb / no-analyze-src-pics / deblock=0:0 / sao / no-sao-non-deblock / rd=3 / no-early-skip / rskip / no-fast-intra / no-tskip-fast / no-cu-lossless / no-b-intra / no-splitrd-skip / rdpenalty=0 / psy-rd=2.00 / psy-rdoq=0.00 / no-rd-refine / no-lossless / cbqpoffs=0 / crqpoffs=0 / rc=abr / bitrate=3000 / qcomp=0.60 / qpstep=4 / stats-write=0 / stats-read=2 / cplxblur=20.0 / qblur=0.5 / ipratio=1.40 / pbratio=1.30 / aq-mode=1 / aq-strength=1.00 / cutree / zone-count=0 / no-strict-cbr / qg-size=32 / no-rc-grain / qpmax=69 / qpmin=0 / no-const-vbv / sar=1 / overscan=0 / videoformat=5 / range=0 / colorprim=1 / transfer=1 / colormatrix=1 / chromaloc=0 / display-window=0 / max-cll=0,0 / min-luma=0 / max-luma=255 / log2-max-poc-lsb=8 / vui-timing-info / vui-hrd-info / slices=1 / no-opt-qp-pps / no-opt-ref-list-length-pps / no-multi-pass-opt-rps / scenecut-bias=0.05 / no-opt-cu-delta-qp / no-aq-motion / no-hdr / no-hdr-opt / no-dhdr10-opt / no-idr-recovery-sei / analysis-reuse-level=5 / scale-factor=0 / refine-intra=0 / refine-inter=0 / refine-mv=0 / no-limit-sao / ctu-info=0 / no-lowpass-dct / refine-mv-type=0 / copy-pic=1 / max-ausize-factor=1.0 / no-dynamic-refine / no-single-sei
Default                                  : Yes
Forced                                   : No
Color range                              : Limited
Color primaries                          : BT.709
Transfer characteristics                 : BT.709
Matrix coefficients                      : BT.709

Audio #1
ID                                       : 2
Format                                   : AC-3
Format/Info                              : Audio Coding 3
Commercial name                          : Dolby Digital
Codec ID                                 : A_AC3
Duration                                 : 2 h 5 min
Bit rate mode                            : Constant
Bit rate                                 : 256 kb/s
Channel(s)                               : 2 channels
Channel layout                           : L R
Sampling rate                            : 48.0 kHz
Frame rate                               : 31.250 FPS (1536 SPF)
Bit depth                                : 16 bits
Compression mode                         : Lossy
Stream size                              : 229 MiB (6%)
Title                                    : Колобок
Language                                 : Russian
Default                                  : Yes
Forced                                   : No

Audio #2
ID                                       : 3
Format                                   : AC-3
Format/Info                              : Audio Coding 3
Commercial name                          : Dolby Digital
Codec ID                                 : A_AC3
Duration                                 : 2 h 5 min
Bit rate mode                            : Constant
Bit rate                                 : 256 kb/s
Channel(s)                               : 2 channels
Channel layout                           : L R
Sampling rate                            : 48.0 kHz
Frame rate                               : 31.250 FPS (1536 SPF)
Bit depth                                : 16 bits
Compression mode                         : Lossy
Stream size                              : 229 MiB (6%)
Title                                    : Андрей Дольский
Language                                 : Russian
Default                                  : No
Forced                                   : No

Audio #3
ID                                       : 4
Format                                   : AC-3
Format/Info                              : Audio Coding 3
Commercial name                          : Dolby Digital
Codec ID                                 : A_AC3
Duration                                 : 2 h 5 min
Bit rate mode                            : Constant
Bit rate                                 : 384 kb/s
Channel(s)                               : 6 channels
Channel layout                           : L R C LFE Ls Rs
Sampling rate                            : 48.0 kHz
Frame rate                               : 31.250 FPS (1536 SPF)
Bit depth                                : 16 bits
Compression mode                         : Lossy
Stream size                              : 345 MiB (9%)
Language                                 : English
Default                                  : No
Forced                                   : No

Audio #4
ID                                       : 5
Format                                   : AC-3
Format/Info                              : Audio Coding 3
Commercial name                          : Dolby Digital
Codec ID                                 : A_AC3
Duration                                 : 2 h 5 min
Bit rate mode                            : Constant
Bit rate                                 : 384 kb/s
Channel(s)                               : 6 channels
Channel layout                           : L R C LFE Ls Rs
Sampling rate                            : 48.0 kHz
Frame rate                               : 31.250 FPS (1536 SPF)
Bit depth                                : 16 bits
Compression mode                         : Lossy
Stream size                              : 345 MiB (9%)
Language                                 : Chinese
Default                                  : No
Forced                                   : No

Text #1
ID                                       : 6
Format                                   : UTF-8
Codec ID                                 : S_TEXT/UTF8
Codec ID/Info                            : UTF-8 Plain Text
Duration                                 : 1 h 59 min
Bit rate                                 : 90 b/s
Count of elements                        : 1738
Stream size                              : 78.9 KiB (0%)
Language                                 : Russian
Default                                  : No
Forced                                   : No

Text #2
ID                                       : 7
Format                                   : UTF-8
Codec ID                                 : S_TEXT/UTF8
Codec ID/Info                            : UTF-8 Plain Text
Duration                                 : 1 h 58 min
Bit rate                                 : 80 b/s
Count of elements                        : 2244
Stream size                              : 69.7 KiB (0%)
Title                                    : SDH
Language                                 : English
Default                                  : No
Forced                                   : No

Text #3
ID                                       : 8
Format                                   : UTF-8
Codec ID                                 : S_TEXT/UTF8
Codec ID/Info                            : UTF-8 Plain Text
Duration                                 : 1 h 58 min
Bit rate                                 : 59 b/s
Count of elements                        : 1653
Stream size                              : 51.6 KiB (0%)
Language                                 : English
Default                                  : No
Forced                                   : No

Text #4
ID                                       : 9
Format                                   : UTF-8
Codec ID                                 : S_TEXT/UTF8
Codec ID/Info                            : UTF-8 Plain Text
Duration                                 : 1 h 57 min
Bit rate                                 : 52 b/s
Count of elements                        : 1739
Stream size                              : 45.3 KiB (0%)
Title                                    : Simplified
Language                                 : Chinese
Default                                  : No
Forced                                   : No

Text #5
ID                                       : 10
Format                                   : UTF-8
Codec ID                                 : S_TEXT/UTF8
Codec ID/Info                            : UTF-8 Plain Text
Duration                                 : 1 h 59 min
Bit rate                                 : 55 b/s
Count of elements                        : 1798
Stream size                              : 48.2 KiB (0%)
Title                                    : Traditional
Language                                 : Chinese
Default                                  : No
Forced                                   : No



Скриншоты:
[+] Всего файлов в раздаче - 1:
The.Wandering.Earth.2019.1080p.WEB-DL.HEVC.mkv3.76 GB

Показать еще раздачи по запросу блуждающая:
2019-05-06 U Блуждающая Земля / Liu lang di qiu / The Wandering Earth (2019) WEB-DL 1080p | L2, A 4.50 GB ↑ 54 ↓ 19
2019-05-04 U Блуждающая Земля / Liu lang di qiu / The Wandering Earth (2019) WEB-DLRip от ExKinoRay | L2 753.25 MB ↑ 34 ↓ 7
2019-05-04 U Блуждающая Земля / Liu lang di qiu / The Wandering Earth (2019) WEB-DLRip-AVC от ExKinoRay | L2 746.29 MB ↑ 46 ↓ 9
2019-05-03 U Блуждающая Земля / Liu lang di qiu / The Wandering Earth (2019) WEB-DLRip | КПК | L2 463.51 MB ↑ 59 ↓ 6
2019-05-02 U Блуждающая Земля / Liu lang di qiu / The Wandering Earth (2019) WEBRip 720p | L2, A 4.36 GB ↑ 108 ↓ 99
2019-05-02 U Блуждающая Земля / Liu lang di qiu / The Wandering Earth (2019) WEB-DLRip | L2, A 2.12 GB ↑ 394 ↓ 190
2019-05-02 U Блуждающая Земля / Liu lang di qiu / The Wandering Earth (2019) WEB-DL 1080p | L2, A 7.46 GB ↑ 816 ↓ 242

Отзывы
Зарегистрируйтесь чтобы добавить комментарий.
Обратная связь
Copyleft ©