↑↓Torrent.by
Поиск
Логин: Регистрация
Пароль: Восстановить пароль
Загрузка...

Балканский рубеж (2019) WEB-DLRip от Portablius | iTunes

Скачать balkanskiy-rubezh-2019-web-dlrip-ot-portablius-itunes.torrent
U Магнитная ссылка Размер: 803.63 MB Раздают: 52 Качают: 14 Добавлен: 2019-05-04 05:40:18
Балканский рубеж (2019) WEB-DLRip от Portablius | iTunes

Название: Балканский рубеж
Год выхода: 2019
Жанр: Боевик, драма
Режиссер: Андрей Волгин
В ролях: Антон Пампушный, Гоша Куценко, Милош Бикович, Милена Радулович, Гойко Митич, Равшана Куркова, Дмитрий Фрид, Александар Сречкович, Светлана Чуйкина, Миодраг Радонич

О фильме: Югославия. 1999 год. Российская спецгруппа получает приказ взять под контроль аэродром Слатина в Косово и удерживать его до прихода подкрепления. Но этот стратегический объект крайне важен албанскому полевому командиру и натовским генералам. Группа вынуждена принять неравный бой с террористами. К аэродрому устремляются российские миротворцы и силы НАТО. Мир вновь близок к большой войне. Но командиру спецгруппы Андрею Шаталову не до политики: в аэропорту среди заложников его любимая девушка Ясна.

Страна: Россия, Сербия
Студия: Апгрейд Вижн, Блесс-Фильм, Archangel Studios
Продолжительность: 02:30:35
Перевод: Русский | iTunes
Субтитры: нет

Файл
Кодек: XviD
Качество: WEB-DLRip
Видео: 640x272 (2.35:1), 24.000 fps, XviD build 73 ~608 kbps avg, 0.14 bit/pixel
Звук: 48 kHz, MPEG Layer 3, 2 ch, ~128.00 kbps avg


[+] MediaInfo
General
Complete name               : Balkanskii.Rubezh.2019.WEB-DLRip.Portablius.avi
Format                      : AVI
Format/Info                 : Audio Video Interleave
File size                   : 804 MiB
Duration                    : 2 h 30 min
Overall bit rate            : 746 kb/s
Writing application         : VirtualDubMod 1.5.10.3 | www.virtualdub-fr.org || (build 2550/release)
Writing library             : VirtualDubMod build 2550/release

Video
ID                          : 0
Format                      : MPEG-4 Visual
Format profile              : Advanced Simple@L5
Format settings             : BVOP1 / Custom Matrix
Format settings, BVOP       : 1
Format settings, QPel       : No
Format settings, GMC        : No warppoints
Format settings, Matrix     : Custom
Codec ID                    : XVID
Codec ID/Hint               : XviD
Duration                    : 2 h 30 min
Bit rate                    : 609 kb/s
Width                       : 640 pixels
Height                      : 272 pixels
Display aspect ratio        : 2.35:1
Frame rate                  : 24.000 FPS
Color space                 : YUV
Chroma subsampling          : 4:2:0
Bit depth                   : 8 bits
Scan type                   : Progressive
Compression mode            : Lossy
Bits/(Pixel*Frame)          : 0.146
Stream size                 : 656 MiB (82%)
Writing library             : XviD 73

Audio
ID                          : 1
Format                      : MPEG Audio
Format version              : Version 1
Format profile              : Layer 3
Codec ID                    : 55
Codec ID/Hint               : MP3
Duration                    : 2 h 30 min
Bit rate mode               : Constant
Bit rate                    : 128 kb/s
Channel(s)                  : 2 channels
Sampling rate               : 48.0 kHz
Frame rate                  : 41.667 FPS (1152 SPF)
Compression mode            : Lossy
Stream size                 : 138 MiB (17%)
Alignment                   : Aligned on interleaves
Interleave, duration        : 42  ms (1.00 video frame)
Interleave, preload duratio : 504  ms
Writing library             : LAME3.99r
Encoding settings           : -m s -V 4 -q 2 -lowpass 17 -b 128




Скриншоты:
[+] Всего файлов в раздаче - 1:
Balkanskii.Rubezh.2019.WEB-DLRip.Portablius.avi803.63 MB

Показать еще раздачи по запросу балканский:
2019-05-05 U Балканский рубеж (2019) WEB-DLRip от Scarabey | iTunes 2.17 GB ↑ 111 ↓ 24
2019-05-05 U Балканский рубеж (2019) WEB-DLRip от Scarabey | iTunes 1.45 GB ↑ 130 ↓ 49
2019-05-03 U Балканский рубеж (2019) WEB-DLRip 720p | iTunes 2.99 GB ↑ 109 ↓ 130
2019-05-03 U Балканский рубеж (2019) WEB-DLRip от Generalfilm | КПК | iTunes 571.37 MB ↑ 58 ↓ 23
2019-05-03 U Балканский рубеж (2019) WEB-DLRip-AVC от ExKinoRay | iTunes 1.07 GB ↑ 143 ↓ 18
2019-05-03 U Балканский рубеж (2019) WEB-DLRip-AVC от Files-x | iTunes 2.72 GB ↑ 162 ↓ 59
2019-05-02 U Балканский рубеж (2019) WEB-DLRip-AVC | iTunes 1К744.71 MB ↑ 307 ↓ 95

Отзывы
Зарегистрируйтесь чтобы добавить комментарий.
Обратная связь
Copyleft ©