↑↓Torrent.by
Поиск
Логин: Регистрация
Пароль: Восстановить пароль
Загрузка...

Ч/Б (2015) WEB-DLRip-AVC от ExKinoRay

Скачать ch-b-2015-web-dlrip-avc-ot-exkinoray.torrent
U Магнитная ссылка Размер: 746.05 MB Раздают: 116 Качают: 18 Добавлен: 2019-05-05 05:39:49
Ч/Б (2015) WEB-DLRip-AVC от ExKinoRay

Название: Ч/Б
Год выхода: 2015
Жанр: Комедия, криминал, фантастика
Режиссер: Евгений Шелякин
В ролях: Алексей Чадов, Мераб Нинидзе, Сергей Маковецкий, Гурам Баблишвили, Бесо Гатаев, Кахи Кавсадзе, Екатерина Редникова, Мария Андреева, Мария Звонарёва, Андрей Руденский, Сергей Годин, Руслан Ягудин, Максим Костромыкин, Александр Головин, Игорь Жижикин, Сергей Фролов, Максим Борисов, Родион Толоконников, Максим Важов, Игорь Несветаев, Сергей Удовик, Ирина Киреева, Степан Абрамов, Артём Лысков, Евгений Сангаджиев, Николай Ковбас, Кирилл Ковбас

О фильме:
Наши дни. Опасного авторитета-интеллектуала Алхана одновременно решают ограбить обманутый им Ярослав и мелкий жулик Нурик. По случайности во время их столкновения Нурик погибает, но возвращается в мир с миссией: быть ангелом-хранителем Ярослава. Вот только Ярослав при этом страдает "аллергией на Кавказ". Мистическим образом скованные вместе, эти двое вынуждены искать общий язык и спасаться от жаждущего расправы Алхана с его подручными.

Выпущено: Россия, RSS Production
Продолжительность: 01:29:04
Язык: Русский

Файл
Формат: MKV
Качество: WEB-DLRip-AVC
Видео: MPEG-4 AVC, 816x340, - 1094 Кбит/с
Аудио:  AAC-HE, 2 ch, - 76 Кбит/с
Субтитры: Нет


[+] MI
Общее
Уникальный идентификатор : 267051572915230145801421654876579200012 (0xC8E84318CF459B47D6DF315706D47C0C)
Полное имя : D:MOVIES4.B.2014.ExKinoRay.mkv
Формат : Matroska
Версия формата : Version 4 / Version 2
Размер файла : 746 Мбайт
Продолжительность : 1 ч. 29 м.
Общий поток : 1171 Кбит/сек
Дата кодирования : UTC 2019-05-04 10:51:56
Программа кодирования : mkvmerge v32.0.0 ('Astral Progressions') 64-bit
Библиотека кодирования : libebml v1.3.7 + libmatroska v1.5.0

Видео
Идентификатор : 1
Формат : AVC
Формат/Информация : Advanced Video Codec
Профиль формата : High@L4.1
Параметр CABAC формата : Да
Параметр RefFrames формата : 12 кадров
Идентификатор кодека : V_MPEG4/ISO/AVC
Продолжительность : 1 ч. 29 м.
Битрейт : 1094 Кбит/сек
Ширина : 816 пикселей
Высота : 340 пикселей
Соотношение сторон : 2,40:1
Режим частоты кадров : Постоянный
Частота кадров : 25,000 кадров/сек
Цветовое пространство : YUV
Субдискретизация насыщенности : 4:2:0
Битовая глубина : 8 бит
Тип развёртки : Прогрессивная
Бит/(Пиксели*Кадры) : 0.158
Размер потока : 696 Мбайт (93%)
Библиотека кодирования : x264 core 152 r2851kMod ba24899
Настройки программы : cabac=1 / ref=12 / deblock=1:-3:-3 / analyse=0x3:0x133 / me=umh / subme=10 / psy=1 / fade_compensate=0.00 / psy_rd=1.00:0.10 / mixed_ref=1 / me_range=32 / chroma_me=1 / trellis=2 / 8x8dct=1 / cqm=0 / deadzone=21,11 / fast_pskip=0 / chroma_qp_offset=-3 / threads=6 / lookahead_threads=1 / sliced_threads=0 / nr=0 / decimate=0 / interlaced=0 / bluray_compat=0 / constrained_intra=0 / bframes=12 / b_pyramid=2 / b_adapt=2 / b_bias=0 / direct=3 / weightb=1 / open_gop=0 / weightp=2 / keyint=250 / keyint_min=25 / scenecut=40 / intra_refresh=0 / rc_lookahead=40 / rc=2pass / mbtree=1 / bitrate=1094 / ratetol=1.0 / qcomp=0.60 / qpmin=0 / qpmax=69 / qpstep=4 / cplxblur=20.0 / qblur=0.5 / ip_ratio=1.40 / aq=3:1.00
Default : Да
Forced : Нет

Аудио
Идентификатор : 2
Формат : AAC
Формат/Информация : Advanced Audio Codec
Профиль формата : HE-AAC / LC
Идентификатор кодека : A_AAC
Продолжительность : 1 ч. 29 м.
Битрейт : 76,0 Кбит/сек
Каналы : 2 канала
Расположение каналов : Front: L R
Частота : 48,0 КГц / 24,0 КГц
Частота кадров : 23,438 кадра/сек (1024 SPF)
Метод сжатия : С потерями
Задержка видео : 31 мс.
Размер потока : 48,4 Мбайт (6%)
Default : Да
Forced : Нет

Меню
00:00:00.000 : en:Глава 1
00:01:34.000 : en:Глава 2
00:04:55.000 : en:Глава 3
00:08:54.000 : en:Глава 4
00:13:33.000 : en:Глава 5
00:18:07.000 : en:Глава 6
00:22:26.000 : en:Глава 7
00:28:06.000 : en:Глава 8
00:33:28.000 : en:Глава 9
00:37:56.000 : en:Глава 10
00:44:28.000 : en:Глава 11
00:49:31.000 : en:Глава 12
00:55:14.000 : en:Глава 13
00:59:56.000 : en:Глава 14
01:06:03.000 : en:Глава 15
01:09:47.000 : en:Глава 16
01:15:40.000 : en:Глава 17
01:21:19.000 : en:Глава 18



Скриншоты:
[+] Всего файлов в раздаче - 1:
4.B.2014.ExKinoRay.mkv746.05 MB

Показать еще раздачи по запросу dlrip:
Вчера U Мы всегда жили в замке / We Have Always Lived in the Castle (2018) WEB-DLRip-AVC от OlLanDGroup | P 1.46 GB ↑ 115 ↓ 57
Вчера U Рубеж мира / Rim of the World (2019) WEB-DLRip-AVC | Пифагор 743.10 MB ↑ 209 ↓ 70
Вчера U Рубеж мира / Rim of the World (2019) WEB-DLRip | Пифагор 1.46 GB ↑ 277 ↓ 175
Вчера U СеняФедя [02х01-09 из 11] (2019) WEB-DLRip от Files-x 2.67 GB ↑ 59 ↓ 147
Вчера U В метре друг от друга / Five Feet Apart (2019) WEB-DLRip | Kerob 1.24 GB ↑ 57 ↓ 21
Вчера U СеняФедя [02х01-09 из 11] (2019) WEB-DLRip-AVC от Files-x 2.73 GB ↑ 72 ↓ 137
Вчера U Домовой (2019) WEB-DLRip-AVC | iTunes 743.77 MB ↑ 23 ↓ 5

Отзывы
Mete0pa
Достойная комедия! Смотреть можно и нужно.

Зарегистрируйтесь чтобы добавить комментарий.
Обратная связь
Copyleft ©