↑↓Torrent.by
Поиск
Логин: Регистрация
Пароль: Восстановить пароль
Загрузка...

Полицейский с Рублёвки. Новогодний беспредел (2018) WEBRip 720p от ExKinoRay

Скачать policeyskiy-s-rublevki-novogodniy-bespredel-2018-webrip-720p-ot-exkinoray.torrent
U Магнитная ссылка Размер: 2.32 GB Раздают: 1011 Качают: 359 Добавлен: 2019-05-05 18:51:14
Полицейский с Рублёвки. Новогодний беспредел (2018) WEBRip 720p от ExKinoRay

Название: Полицейский с Рублёвки. Новогодний беспредел
Год выхода: 2018
Жанр: Комедия
Режиссер: Илья Куликов
В ролях: Александр Петров, Сергей Бурунов, Александра Бортич, Роман Попов, Татьяна Бабенкова, София Каштанова, Рина Гришина, Ирина Вилкова, Никита Легостев, Александр Буянов

О фильме:
В канун нового года отделение полиции «Барвиха Северное» оказывается под угрозой закрытия. Чтобы спасти родной отдел, полицейский с Рублевки Гриша Измайлов вынужден пойти на крайние меры и вместе с оперативниками решает ограбить банк. Он рассчитывает на то, что его коллеги вместе с начальником отдела - Яковлевым легко раскроют это дело, деньги вернут обратно, и все сохранят работу в следующем году. Но все идет не так, как задумал Гриша...

Страна: Россия
Студия: Legio Felix по заказу телеканала ТНТ
Продолжительность: 01:30:02
Перевод: Русский

Файл
Кодек: MPEG-4 AVC
Качество: WEBRip 720p
Видео: MPEG-4 AVC, ~ 3500 Кбит/с, 1280x536
Язык: AC3, 2 ch, 192 Кбит/с

Релиз:

Реклама, любого вида, отсутствует.


[+] Инфо-файл

General
Complete name         : Policejskiy.s.rublevki.Novogodniy.bespredel.2018.WEB-DL.(720p).ExKinoRay.mkv
Format                      : Matroska
Format version              : Version 2
File size                   : 2.32 GiB
Duration                    : 1 h 30 min
Overall bit rate            : 3 682 kb/s
Encoded date                : UTC 2019-05-05 11:45:11
Writing application         : mkvmerge v5.8.0 ('No Sleep / Pillow') built on Sep  2 2012 15:37:04
Writing library             : libebml v1.2.3 + libmatroska v1.3.0

Video
ID                          : 1
Format                      : AVC
Format/Info                 : Advanced Video Codec
Format profile              : High@L4.1
Format settings, CABAC      : Yes
Format settings, ReFrames   : 9 frames
Codec ID                    : V_MPEG4/ISO/AVC
Duration                    : 1 h 30 min
Bit rate                    : 3 490 kb/s
Width                       : 1 280 pixels
Height                      : 536 pixels
Display aspect ratio        : 2.40:1
Frame rate mode             : Constant
Frame rate                  : 25.000 FPS
Color space                 : YUV
Chroma subsampling          : 4:2:0
Bit depth                   : 8 bits
Scan type                   : Progressive
Bits/(Pixel*Frame)          : 0.203
Stream size                 : 2.15 GiB (93%)
Writing library             : x264 core 157 r2935 545de2f
Encoding settings           : cabac=1 / ref=9 / deblock=1:-3:-3 / analyse=0x3:0x133 / me=umh / subme=11 / psy=1 / psy_rd=1.00:0.05 / mixed_ref=1 / me_range=24 / chroma_me=1 / trellis=2 / 8x8dct=1 / cqm=0 / deadzone=21,11 / fast_pskip=0 / chroma_qp_offset=-3 / threads=12 / lookahead_threads=3 / sliced_threads=0 / nr=0 / decimate=1 / interlaced=0 / bluray_compat=0 / constrained_intra=0 / bframes=10 / b_pyramid=2 / b_adapt=2 / b_bias=0 / direct=3 / weightb=1 / open_gop=0 / weightp=2 / keyint=250 / keyint_min=25 / scenecut=40 / intra_refresh=0 / rc_lookahead=40 / rc=2pass / mbtree=1 / bitrate=3490 / ratetol=1.0 / qcomp=0.60 / qpmin=0 / qpmax=51 / qpstep=4 / cplxblur=20.0 / qblur=0.5 / vbv_maxrate=50000 / vbv_bufsize=62500 / nal_hrd=none / filler=0 / ip_ratio=1.40 / aq=1:1.00
Language                    : Russian
Default                     : Yes
Forced                      : No

Audio
ID                          : 2
Format                      : AC-3
Format/Info                 : Audio Coding 3
Mode extension              : CM (complete main)
Format settings, Endianness : Big
Codec ID                    : A_AC3
Duration                    : 1 h 30 min
Bit rate mode               : Constant
Bit rate                    : 192 kb/s
Channel(s)                  : 2 channels
Channel positions           : Front: L R
Sampling rate               : 48.0 kHz
Frame rate                  : 31.250 FPS (1536 spf)
Bit depth                   : 16 bits
Compression mode            : Lossy
Stream size                 : 124 MiB (5%)
Language                    : Russian
Default                     : Yes
Forced                      : No



Скриншоты:
[+] Всего файлов в раздаче - 1:
Policejskiy.s.rublevki.Novogodniy.bespredel.2018.WEB-DL.(720p).ExKinoRay.mkv2.32 GB

Показать еще раздачи по запросу полицейский:
2019-05-13 U Полицейский с Рублёвки. Новогодний беспредел (2018) WEBRip от ExKinoRay 745.40 MB ↑ 22 ↓ 18
2019-05-11 U Полицейский с Рублёвки. Новогодний беспредел (2018) WEBRip-AVC 743.25 MB ↑ 114 ↓ 16
2019-05-07 U Полицейский с Рублевки. Новогодний беспредел (2018) WEBRip от Scarabey 1.38 GB ↑ 109 ↓ 22
2019-05-05 U Полицейский с Рублёвки. Новогодний беспредел (2018) WEBRip от Generalfilm | КПК 342.18 MB ↑ 125 ↓ 28
2019-05-05 U Полицейский с Рублёвки. Новогодний беспредел (2018) HDTVRip от GeneralFilm 744.86 MB ↑ 453 ↓ 87
2019-05-05 U Полицейский с Рублёвки. Новогодний беспредел (2018) WEBRip от Files-x 1.37 GB ↑ 522 ↓ 177
2019-05-05 U Полицейский с Рублёвки. Новогодний беспредел (2018) WEBRip-AVC от Files-x 1.37 GB ↑ 174 ↓ 26

Отзывы
Зарегистрируйтесь чтобы добавить комментарий.
Обратная связь
Copyleft ©