↑↓Torrent.by
Поиск
Логин: Регистрация
Пароль: Восстановить пароль
Загрузка...

Полицейский с Рублёвки. Новогодний беспредел (2018) WEBRip от Files-x

Скачать policeyskiy-s-rublevki-novogodniy-bespredel-2018-webrip-ot-files-x.torrent
U Магнитная ссылка Размер: 1.37 GB Раздают: 522 Качают: 177 Добавлен: 2019-05-05 18:51:18
Полицейский с Рублёвки. Новогодний беспредел  (2018) WEBRip от Files-x

Оригинальное название: Полицейский с Рублёвки. Новогодний беспредел
Год выпуска: 2018
Жанр:  Комедия
Режиссер: Илья Куликов
В ролях: Александр Петров (III), Сергей Бурунов, Александра Бортич, Татьяна Бабенкова, Софья Каштанова, Роман Попов, Рина Гришина, Ирина Вилкова, Ростислав Гулбис, Сергей Штатнов, Александр Дерепко, Сергей Комаров (II)

О фильме По сюжету, в канун нового года отделение полиции «Барвиха Северное» оказывается под угрозой закрытия. Чтобы спасти родной отдел, полицейский с Рублевки Гриша Измайлов вынужден пойти на крайние меры и вместе с оперативниками решает ограбить банк. Он рассчитывает на то, что его коллеги, вместе с начальником отдела Яковлевым, легко раскроют это дело, деньги вернут обратно, и все сохранят работу в следующем году. Но все идет не так, как задумал Гриша...

Выпущено: Россия
Студия:   Legio Felix по заказу телеканала ТНТ
Продолжительность: 01:30:00
Перевод: Не требуется

Файл
Качество: WEBRip
Видео: XviD, ~ 1981 Кбит/с, 720x304
Аудио: AC3, 2 ch, 192 Кбит/с

Релиз:


[+] MediaInfo
General
Complete name                    : C:UsersuserDownloadsVideoPolitseyskiy.s.Rublevki.Novogodniy.bespredel.2018.WEB-DLRip. Files-x.avi
Format                           : AVI
Format/Info                      : Audio Video Interleave
File size                        : 1.37 GiB
Duration                         : 1h 30mn
Overall bit rate                 : 2 183 Kbps
Writing application              : VirtualDubMod 1.5.10.3 | www.virtualdub-fr.org || (build 2550/release)
Writing library                  : VirtualDubMod build 2550/release

Video
ID                               : 0
Format                           : MPEG-4 Visual
Format profile                   : Advanced Simple@L5
Format settings, BVOP            : 1
Format settings, QPel            : No
Format settings, GMC             : No warppoints
Format settings, Matrix          : Custom
Codec ID                         : XVID
Codec ID/Hint                    : XviD
Duration                         : 1h 30mn
Bit rate                         : 1 981 Kbps
Width                            : 720 pixels
Height                           : 304 pixels
Display aspect ratio             : 2.35:1
Frame rate                       : 25.000 fps
Color space                      : YUV
Chroma subsampling               : 4:2:0
Bit depth                        : 8 bits
Scan type                        : Progressive
Compression mode                 : Lossy
Bits/(Pixel*Frame)               : 0.362
Stream size                      : 1.25 GiB (91%)
Writing library                  : XviD 73

Audio
ID                               : 1
Format                           : AC-3
Format/Info                      : Audio Coding 3
Mode extension                   : CM (complete main)
Codec ID                         : 2000
Duration                         : 1h 30mn
Bit rate mode                    : Constant
Bit rate                         : 192 Kbps
Channel(s)                       : 2 channels
Channel positions                : Front: L R
Sampling rate                    : 48.0 KHz
Bit depth                        : 16 bits
Compression mode                 : Lossy
Stream size                      : 124 MiB (9%)
Alignment                        : Split accross interleaves
Interleave, duration             : 40 ms (1.00 video frame)
Interleave, preload duration     : 500 ms




Скриншоты:
[+] Всего файлов в раздаче - 1:
Politseyskiy.s.Rublevki.Novogodniy.bespredel.2018.WEB-DLRip. Files-x.avi1.37 GB

Показать еще раздачи по запросу полицейский:
2019-05-13 U Полицейский с Рублёвки. Новогодний беспредел (2018) WEBRip от ExKinoRay 745.40 MB ↑ 22 ↓ 18
2019-05-11 U Полицейский с Рублёвки. Новогодний беспредел (2018) WEBRip-AVC 743.25 MB ↑ 114 ↓ 16
2019-05-07 U Полицейский с Рублевки. Новогодний беспредел (2018) WEBRip от Scarabey 1.38 GB ↑ 109 ↓ 22
2019-05-05 U Полицейский с Рублёвки. Новогодний беспредел (2018) WEBRip от Generalfilm | КПК 342.18 MB ↑ 125 ↓ 28
2019-05-05 U Полицейский с Рублёвки. Новогодний беспредел (2018) HDTVRip от GeneralFilm 744.86 MB ↑ 453 ↓ 87
2019-05-05 U Полицейский с Рублёвки. Новогодний беспредел (2018) WEBRip 720p от ExKinoRay 2.32 GB ↑ 1011 ↓ 359
2019-05-05 U Полицейский с Рублёвки. Новогодний беспредел (2018) WEBRip-AVC от Files-x 1.37 GB ↑ 174 ↓ 26

Отзывы
Зарегистрируйтесь чтобы добавить комментарий.
Обратная связь
Copyleft ©