↑↓Torrent.by
Поиск
Логин: Регистрация
Пароль: Восстановить пароль
Загрузка...

Полицейский с Рублёвки. Новогодний беспредел (2018) HDTVRip от GeneralFilm

Скачать policeyskiy-s-rublevki-novogodniy-bespredel-2018-hdtvrip-ot-generalfilm.torrent
U Магнитная ссылка Размер: 744.86 MB Раздают: 401 Качают: 86 Добавлен: 2019-05-05 18:51:27
Полицейский с Рублёвки. Новогодний беспредел (2018) HDTVRip от GeneralFilm

Оригинальное название: Полицейский с Рублёвки. Новогодний беспредел
Год выпуска: 2018
Жанр:  Комедия
Выпущено: Россия, «Legio Felix»
Режиссер: Илья Куликов
В ролях: Александр Петров (III), Сергей Бурунов, Александра Бортич, Татьяна Бабенкова, Софья Каштанова, Роман Попов, Рина Гришина, Ирина Вилкова, Ростислав Гулбис, Сергей Штатнов, Александр Дерепко, Сергей Комаров (II)

О фильме: В канун нового года отделение полиции «Барвиха Северное» оказывается под угрозой закрытия. Чтобы спасти родной отдел, полицейский с Рублевки Гриша Измайлов вынужден пойти на крайние меры и вместе с оперативниками решает ограбить банк. Он рассчитывает на то, что его коллеги вместе с начальником отдела — Яковлевым легко раскроют это дело, деньги вернут обратно, и все сохранят работу в следующем году. Но все идет не так, как задумал Гриша.

Качество: HDTVRip
Видео: XviD build 73, 720x304 (2.37:1), 25.000 fps, 1059 Kbps (0.193 bit/pixel)
Аудио: 48.0 kHz, MP3 2ch, 128 kbps
Продолжительность: 01:27:30
Перевод: Не требуется [Русский]
Cубтитры: нет

Релиз:
[+] MediaInfo
General
Complete name               : D:RazdachiNovogodnij.Bespredel.2018.HDTVRip.GeneralFilm.avi
Format                      : AVI
Format/Info                 : Audio Video Interleave
File size                   : 745 MiB
Duration                    : 1 h 27 min
Overall bit rate            : 1 197 kb/s
Writing application         : VirtualDubMod 1.5.10.3 | www.virtualdub-fr.org || (build 2550/release)
Writing library             : VirtualDubMod build 2550/release

Video
ID                          : 0
Format                      : MPEG-4 Visual
Format profile              : Advanced Simple@L5
Format settings             : BVOP1 / Custom Matrix
Format settings, BVOP       : 1
Format settings, QPel       : No
Format settings, GMC        : No warppoints
Format settings, Matrix     : Custom
Codec ID                    : XVID
Codec ID/Hint               : XviD
Duration                    : 1 h 27 min
Bit rate                    : 1 059 kb/s
Width                       : 720 pixels
Height                      : 304 pixels
Display aspect ratio        : 2.35:1
Frame rate                  : 25.000 FPS
Color space                 : YUV
Chroma subsampling          : 4:2:0
Bit depth                   : 8 bits
Scan type                   : Progressive
Compression mode            : Lossy
Bits/(Pixel*Frame)          : 0.193
Stream size                 : 659 MiB (88%)
Writing library             : XviD 73

Audio
ID                          : 1
Format                      : MPEG Audio
Format version              : Version 1
Format profile              : Layer 3
Codec ID                    : 55
Codec ID/Hint               : MP3
Duration                    : 1 h 27 min
Bit rate mode               : Constant
Bit rate                    : 128 kb/s
Channel(s)                  : 2 channels
Sampling rate               : 48.0 kHz
Frame rate                  : 41.667 FPS (1152 SPF)
Compression mode            : Lossy
Stream size                 : 79.7 MiB (11%)
Alignment                   : Aligned on interleaves
Interleave, duration        : 40  ms (1.00 video frame)
Interleave, preload duratio : 504  ms
Writing library             : LAME3.99r
Encoding settings           : -m s -V 4 -q 2 -lowpass 17 -b 128



Скриншоты:
[+] Всего файлов в раздаче - 1:
Novogodnij.Bespredel.2018.HDTVRip.GeneralFilm.avi744.86 MB

Показать еще раздачи по запросу полицейский:
2019-05-13 U Полицейский с Рублёвки. Новогодний беспредел (2018) WEBRip от ExKinoRay 745.40 MB ↑ 21 ↓ 13
2019-05-11 U Полицейский с Рублёвки. Новогодний беспредел (2018) WEBRip-AVC 743.25 MB ↑ 52 ↓ 15
2019-05-07 U Полицейский с Рублевки. Новогодний беспредел (2018) WEBRip от Scarabey 1.38 GB ↑ 68 ↓ 19
2019-05-05 U Полицейский с Рублёвки. Новогодний беспредел (2018) WEBRip от Generalfilm | КПК 342.18 MB ↑ 125 ↓ 27
2019-05-05 U Полицейский с Рублёвки. Новогодний беспредел (2018) WEBRip от Files-x 1.37 GB ↑ 514 ↓ 172
2019-05-05 U Полицейский с Рублёвки. Новогодний беспредел (2018) WEBRip 720p от ExKinoRay 2.32 GB ↑ 949 ↓ 357
2019-05-05 U Полицейский с Рублёвки. Новогодний беспредел (2018) WEBRip-AVC от Files-x 1.37 GB ↑ 106 ↓ 26

Отзывы
Зарегистрируйтесь чтобы добавить комментарий.
Обратная связь
Copyleft ©