↑↓Torrent.by
Поиск
Логин: Регистрация
Пароль: Восстановить пароль
Загрузка...

Ковёр-самолёт / Hodja fra Pjort (2018) BDRip 720p от селезень | iTunes

Скачать kover-samolet-hodja-fra-pjort-2018-bdrip-720p-ot-selezen-itunes.torrent
U Магнитная ссылка Размер: 3.05 GB Раздают: 158 Качают: 49 Добавлен: 2019-05-05 18:51:56
Ковёр-самолёт / Hodja fra Pjort (2018) BDRip 720p от селезень | iTunes

Название: Ковёр-самолёт
Оригинальное название: Hodja fra Pjort / Up and Away
Год выхода: 2018
Жанр: Мультфильм, семейный
Режиссер: Карстен Килерих
В ролях: Вибеке Дюхольм, Петер Фрёдин, Эрик Холми, Ребекка Ронде Килерих, Сонни Лэхи, Туре Линдхардт, Михаэль Зуков Мардорф, Сьюзи Пауэр, Биргитте Рааберг, Ларс Ранте

О фильме: Главный герой растёт мечтательным мальчиком, который хочет увидеть мир. Его отец, смотря на жизнь куда более реалистично, настаивает, чтобы сын выбросил никчёмные мысли из головы и выучился на портного. Но мальчик не перестаёт мечтать о путешествиях в далекие края, и в один прекрасный день встречает купца ЭльФазу, который готов пожаловать ему ковер-самолёт, если мальчик отправится в большой город под властью султана, найдёт и возвратит ЭльФазе его маленькую внучку...

Страна: Дания
Студия: M&M Productions, A. Film, Danmarks Radio
Продолжительность: 01:21:03
Перевод: Дублированный | iTunes

Качество: BDRip 720p
Видео: MPEG-4 AVC, 1280x536, 4356 Kbit/s, 24 fps
Звук:
Аудио #01: 48 kHz, AC3, 5.1, 384 Kbps | iTunes | RUS |
Аудио #02: 48 kHz, AC3, 5.1, 640 Kbps | Оригинал |  DAN |
Субтитры: Английские

Релиз:


[+] MI
General
Unique ID                   : 296222331983735487730340349786941402600 (0xDEDA588F4930A46D0AD2FD36A28DADE8)
Complete name               : D:Video111Blu rayHodja.fra.Pjort.AKA.Up.and.Away.2018.BDRip.720p.seleZen.mkv
Format                      : Matroska
Format version              : Version 4
File size                   : 3.05 GiB
Duration                    : 1 h 21 min
Overall bit rate            : 5 382 kb/s
Movie name                  : Hodja fra Pjort 2018 from селезень
Encoded date                : UTC 2019-05-05 07:12:14
Writing application         : mkvmerge v32.0.0 ('Astral Progressions') 64-bit
Writing library             : libebml v1.3.7 + libmatroska v1.5.0

Video
ID                          : 1
Format                      : AVC
Format/Info                 : Advanced Video Codec
Format profile              : High@L4.1
Format settings             : CABAC / 12 Ref Frames
Format settings, CABAC      : Yes
Format settings, Reference  : 12 frames
Codec ID                    : V_MPEG4/ISO/AVC
Duration                    : 1 h 21 min
Bit rate                    : 4 356 kb/s
Width                       : 1 280 pixels
Height                      : 536 pixels
Display aspect ratio        : 2.40:1
Frame rate mode             : Constant
Frame rate                  : 24.000 FPS
Color space                 : YUV
Chroma subsampling          : 4:2:0
Bit depth                   : 8 bits
Scan type                   : Progressive
Bits/(Pixel*Frame)          : 0.265
Stream size                 : 2.47 GiB (81%)
Title                       : seleZen
Writing library             : x264 core 148 r2705kMod 3f5ed56
Encoding settings           : cabac=1 / ref=12 / deblock=1:-2:-2 / analyse=0x3:0x133 / me=umh / subme=10 / psy=1 / fade_compensate=0.00 / psy_rd=1.20:0.07 / mixed_ref=1 / me_range=24 / chroma_me=1 / trellis=2 / 8x8dct=1 / cqm=0 / deadzone=21,11 / fast_pskip=0 / chroma_qp_offset=-3 / threads=12 / lookahead_threads=2 / sliced_threads=0 / nr=0 / decimate=0 / interlaced=0 / bluray_compat=0 / constrained_intra=0 / fgo=0 / bframes=8 / b_pyramid=2 / b_adapt=2 / b_bias=0 / direct=3 / weightb=1 / open_gop=0 / weightp=2 / keyint=240 / keyint_min=24 / scenecut=40 / intra_refresh=0 / rc_lookahead=50 / rc=2pass / mbtree=0 / bitrate=4356 / ratetol=1.0 / qcomp=0.60 / qpmin=0 / qpmax=51 / qpstep=4 / cplxblur=20.0 / qblur=0.5 / vbv_maxrate=50000 / vbv_bufsize=62500 / nal_hrd=none / filler=0 / ip_ratio=1.40 / pb_ratio=1.30 / aq=3:0.80
Language                    : English
Default                     : Yes
Forced                      : No

Audio #1
ID                          : 2
Format                      : AC-3
Format/Info                 : Audio Coding 3
Commercial name             : Dolby Digital
Codec ID                    : A_AC3
Duration                    : 1 h 21 min
Bit rate mode               : Constant
Bit rate                    : 384 kb/s
Channel(s)                  : 6 channels
Channel layout              : L R C LFE Ls Rs
Sampling rate               : 48.0 kHz
Frame rate                  : 31.250 FPS (1536 SPF)
Bit depth                   : 16 bits
Compression mode            : Lossy
Stream size                 : 223 MiB (7%)
Title                       : iTunes
Language                    : Russian
Service kind                : Complete Main
Default                     : Yes
Forced                      : Yes

Audio #2
ID                          : 3
Format                      : AC-3
Format/Info                 : Audio Coding 3
Commercial name             : Dolby Digital
Codec ID                    : A_AC3
Duration                    : 1 h 21 min
Bit rate mode               : Constant
Bit rate                    : 640 kb/s
Channel(s)                  : 6 channels
Channel layout              : L R C LFE Ls Rs
Sampling rate               : 48.0 kHz
Frame rate                  : 31.250 FPS (1536 SPF)
Bit depth                   : 16 bits
Compression mode            : Lossy
Stream size                 : 371 MiB (12%)
Title                       : Original
Language                    : Danish
Service kind                : Complete Main
Default                     : No
Forced                      : No

Text
ID                          : 4
Format                      : UTF-8
Codec ID                    : S_TEXT/UTF8
Codec ID/Info               : UTF-8 Plain Text
Duration                    : 1 h 15 min
Bit rate                    : 67 b/s
Count of elements           : 1398
Stream size                 : 37.2 KiB (0%)
Title                       : Full
Language                    : English
Default                     : No
Forced                      : No

Menu
00:00:00.000                : :00:00:00.000
00:09:44.083                : :00:09:44.083
00:20:59.750                : :00:20:59.750
00:30:19.375                : :00:30:19.375
00:40:13.000                : :00:40:13.000
00:52:01.875                : :00:52:01.875
01:02:54.750                : :01:02:54.750
01:11:14.667                : :01:11:14.667



Скриншоты:
[+] Всего файлов в раздаче - 1:
Hodja.fra.Pjort.AKA.Up.and.Away.2018.BDRip.720p.seleZen.mkv3.05 GB

Отзывы
Зарегистрируйтесь чтобы добавить комментарий.
Обратная связь
Copyleft ©