↑↓Torrent.by
Поиск
Логин: Регистрация
Пароль: Восстановить пароль
Загрузка...

Американский палач / American Hangman (2019) WEB-DLRip 720p | iTunes

Скачать amerikanskiy-palach-american-hangman-2019-web-dlrip-720p-itunes.torrent
U Магнитная ссылка Размер: 1.95 GB Раздают: 71 Качают: 19 Добавлен: 2019-05-06 07:55:24
Американский палач / American Hangman (2019) WEB-DLRip 720p | iTunes

Название: Американский палач
Оригинальное название: American Hangman
Год выхода: 2019
Жанр:  Триллер
Режиссер: Уилсон Конибер
В ролях: Дональд Сазерленд, Винсент Картайзер, Оливер Дэннис, Пол Браунштейн, Пол Амато, Мэтт Барам, Дэн Бирн, Джоэнн Боланд, Александр Краузер, Чарли Эббс

О фильме:
Похищение человека, которое транслируют в прямом эфире в социальных сетях, внезапно превращается в разбирательство над судьей, который вынес неверный вердикт в одном из своих прошлых уголовных дел. Однако на этот раз судья становится подсудимым, а роль судьи и присяжных исполняют зрители прямой трансляции и именно им предстоит решать, останется ли он в живых.

Страна: Канада
Студия: Hangman Justice Productions
Продолжительность: 01:39:07
Перевод: Профессиональный (многоголосый, закадровый) | iTunes
Субтитры: Русские, английские, украинские

Файл
Формат: MKV
Качество: WEB-DLRip 720p
Видео: x264, 1280x530, 23.976 fps, ~2500 Kbps, 0.154 bit/pixel
Аудио: 48 kHz, AC3, 5.1, 384 Kbps
Формат субтитров: softsub (SRT)

***Релиз от: -=DoMiNo=-


[+] M/I
x264 info: frame I:1431  Avg QP:12.27  size:104219
x264 info: frame P:35172 Avg QP:15.66  size: 27276
x264 info: frame B:105997 Avg QP:17.57  size:  6623
x264 info: consecutive B-frames:  1.5%  2.2%  5.0% 73.0%  5.9%  9.0%  0.9%  0.9%  1.5%

General
Unique ID                   : 250296618529747985847821396204826671423 (0xBC4D601112FC6FA51ADA322A2D08393F)
Complete name               : Американский палач.(2019).WEB-DLRip,720p.[-=DoMiNo=-].mkv
Format                      : Matroska
Format version              : Version 4
File size                   : 1.95 GiB
Duration                    : 1 h 39 min
Overall bit rate            : 2 823 kb/s
Movie name                  : Американский палач
Deion                 : Похищение человека, которое транслируют в прямом эфире в социальных сетях, внезапно превращается в разбирательство над судьей, который вынес неверный вердикт в одном из своих прошлых уголовных дел. Однако на этот раз судья становится подсудимым, а роль судьи и присяжных исполняют зрители прямой трансляции и именно им предстоит решать, останется ли он в живых.
Attachments                 : poster.jpg
ACTORS                      : Donald Sutherland, Vincent Kartheiser, Oliver Dennis, Paul Braunstein, Paul Amato, Matt Baram, Dan Beirne, Joanne Boland
COUNTRY                     : Canada
DATE                        : 2019-01-04
DIRECTOR                    : Wilson Coneybeare
GENRE                       : триллер
ORIGINAL_TITLE              : American Hangman
PUBLISHER                   : The Fyzz Facility, Northern Ontario Heritage Fund Corporation, Hangman Justice Productions, Stirling Bridge Entertainment, Téléfilm Canada, Ontario Media Development Corporation (OMDC)
RATING                      : 6.80

Video
ID                          : 1
Format                      : AVC
Format/Info                 : Advanced Video Codec
Format profile              : High@L4.1
Format settings             : CABAC / 9 Ref Frames
Format settings, CABAC      : Yes
Format settings, Reference  : 9 frames
Codec ID                    : V_MPEG4/ISO/AVC
Duration                    : 1 h 39 min
Bit rate                    : 2 500 kb/s
Width                       : 1 280 pixels
Height                      : 530 pixels
Display aspect ratio        : 2.40:1
Frame rate mode             : Constant
Frame rate                  : 23.976 (24000/1001) FPS
Color space                 : YUV
Chroma subsampling          : 4:2:0
Bit depth                   : 8 bits
Scan type                   : Progressive
Bits/(Pixel*Frame)          : 0.154
Stream size                 : 1.65 GiB (84%)
Title                       : RIP_BY_-=DoMiNo=-
Writing library             : x264 core 157 r2935 545de2f
Encoding settings           : cabac=1 / ref=9 / deblock=1:0:0 / analyse=0x3:0x133 / me=hex / subme=7 / psy=1 / psy_rd=1.00:0.00 / mixed_ref=1 / me_range=16 / chroma_me=1 / trellis=2 / 8x8dct=1 / cqm=0 / deadzone=21,11 / fast_pskip=1 / chroma_qp_offset=-2 / threads=6 / lookahead_threads=2 / sliced_threads=0 / nr=0 / decimate=1 / interlaced=0 / bluray_compat=0 / constrained_intra=0 / bframes=8 / b_pyramid=2 / b_adapt=2 / b_bias=0 / direct=1 / weightb=1 / open_gop=0 / weightp=2 / keyint=250 / keyint_min=23 / scenecut=40 / intra_refresh=0 / rc_lookahead=250 / rc=abr / mbtree=1 / bitrate=2500 / ratetol=1.0 / qcomp=0.65 / qpmin=0 / qpmax=69 / qpstep=4 / vbv_maxrate=50000 / vbv_bufsize=62500 / nal_hrd=none / filler=0 / ip_ratio=1.40 / aq=1:1.00
Language                    : English
Default                     : Yes
Forced                      : No
Color range                 : Limited
Color primaries             : BT.709
Transfer characteristics    : BT.709
Matrix coefficients         : BT.709

Audio
ID                          : 2
Format                      : AC-3
Format/Info                 : Audio Coding 3
Commercial name             : Dolby Digital
Codec ID                    : A_AC3
Duration                    : 1 h 39 min
Bit rate mode               : Constant
Bit rate                    : 384 kb/s
Channel(s)                  : 6 channels
Channel layout              : L R C LFE Ls Rs
Sampling rate               : 48.0 kHz
Frame rate                  : 31.250 FPS (1536 SPF)
Bit depth                   : 16 bits
Compression mode            : Lossy
Stream size                 : 272 MiB (14%)
Title                       : iTunes
Language                    : Russian
Service kind                : Complete Main
Default                     : Yes
Forced                      : No

Text #1
ID                          : 3
Format                      : UTF-8
Codec ID                    : S_TEXT/UTF8
Codec ID/Info               : UTF-8 Plain Text
Language                    : Russian
Default                     : Yes
Forced                      : No

Text #2
ID                          : 4
Format                      : UTF-8
Codec ID                    : S_TEXT/UTF8
Codec ID/Info               : UTF-8 Plain Text
Language                    : Ukrainian
Default                     : No
Forced                      : No

Text #3
ID                          : 5
Format                      : UTF-8
Codec ID                    : S_TEXT/UTF8
Codec ID/Info               : UTF-8 Plain Text
Language                    : English
Default                     : No
Forced                      : No

Menu
00:00:00.000                : :1
00:06:04.000                : :2
00:12:40.000                : :3
00:19:23.000                : :4
00:25:03.000                : :5
00:31:20.000                : :6
00:38:20.000                : :7
00:44:35.000                : :8
00:50:44.000                : :9
00:57:12.000                : :10
01:03:23.000                : :11
01:09:26.000                : :12
01:16:12.000                : :13
01:22:15.000                : :14
01:28:05.000                : :15
01:35:00.000                : :16



Скриншоты:
[+] Всего файлов в раздаче - 1:
Американский палач.(2019).WEB-DLRip,720p.[-=DoMiNo=-].mkv1.95 GB

Показать еще раздачи по запросу американский:
2019-03-25 U Американский палач / American Hangman (2019) WEB-DL 1080p от ExKinoRay | iTunes 3.68 GB ↑ 613 ↓ 216
2019-03-25 U Американский палач / American Hangman (2019) WEB-DLRip от MegaPeer | iTunes 1.46 GB ↑ 91 ↓ 24
2019-03-23 U Американский палач / American Hangman (2019) WEB-DL 1080p от ExKinoRay | HDRezka Studio 3.55 GB ↑ 74 ↓ 45
2019-03-23 U Американский палач / American Hangman (2019) WEB-DLRip от ExKinoRay | HDRezka Studio 1.46 GB ↑ 117 ↓ 55
2019-03-10 U Анна Крауэлл - Американский английский в формулах для русских [Том 1-2] (2019) PDF 3.80 MB ↑ 208 ↓ 11
2018-02-14 U Американский дьявол / American Satan (2017) HDRip 720p | GreenРай Studio 3.34 GB ↑ 36 ↓ 20
2018-02-13 U Американский дьявол / American Satan (2017) HDRip | GreenРай Studio 1.36 GB ↑ 49 ↓ 20

Отзывы
screw
Однако!о_О Беру не глядя! За упакованные 720р хорошему Человеку - Спасибо!

Зарегистрируйтесь чтобы добавить комментарий.
Обратная связь
Copyleft ©