↑↓Torrent.by
Поиск
Логин: Регистрация
Пароль: Восстановить пароль
Загрузка...

Большой артист [01-02 из 02] (2019) WEB-DLRip от Files-x

Скачать bolshoy-artist-01-02-iz-2019-web-dlrip-ot-files-x.torrent
U Магнитная ссылка Размер: 2.75 GB Раздают: 196 Качают: 58 Добавлен: 2019-05-06 14:00:33
Большой артист  [01-02 из 02]  (2019) WEB-DLRip от Files-x

Оригинальное название: Большой артист
Год выпуска: 2019
Жанр:  Мелодрама
Режиссер: Дмитрий Корявов
В ролях: Нил Кропалов, Евгений Сидихин, Мария Миронова, Егор Бероев, Сергей Баталов, Анастасия Чепелюк, Ксения Щербакова, Алина Ефремова, Илья Кочетков, Юрий Николаенко, Екатерина Волкова

О фильме Середина 1980-х. Обаятельному красавцу Глебу тесно в провинции - он грезит большой сценой и мечтой стать великим артистом. Возможно, судьба и сулила ему успех, если бы не роковая первая любовь. Девушка из высшего света Алена Торшакова влюбляется в Глеба без ума и покоряет его сердце. Но ее высокопоставленные родители совсем не о таком зяте мечтают. В их планах - породниться с влиятельным семейством Виленских, и ради этого они готовы пойти на все. В сговоре с Виленскими и Аллой, бывшей одноклассницей Глеба, влюбленной в него, Торшаковы инсценируют жестокий спектакль...

Выпущено: Россия
Продолжительность: 2 x ~ 01:46:00
Перевод: Не требуется

Файл
Качество: WEB-DLRip
Видео: XviD, ~ 1600 Кбит/с, 720x400
Аудио: AC3, 2 ch, 192 Кбит/с

Релиз:


[+] MediaInfo
General
Complete name                    : C:UsersuserDownloadsVideo1. Большой артист. .2019.WEB-DLRip. Files-x.avi
Format                           : AVI
Format/Info                      : Audio Video Interleave
File size                        : 1.34 GiB
Duration                         : 1h 46mn
Overall bit rate                 : 1 802 Kbps
Writing application              : VirtualDubMod 1.5.10.3 | www.virtualdub-fr.org || (build 2550/release)
Writing library                  : VirtualDubMod build 2550/release

Video
ID                               : 0
Format                           : MPEG-4 Visual
Format profile                   : Advanced Simple@L5
Format settings, BVOP            : 1
Format settings, QPel            : No
Format settings, GMC             : No warppoints
Format settings, Matrix          : Custom
Codec ID                         : XVID
Codec ID/Hint                    : XviD
Duration                         : 1h 46mn
Bit rate                         : 1 600 Kbps
Width                            : 720 pixels
Height                           : 400 pixels
Display aspect ratio             : 16:9
Frame rate                       : 25.000 fps
Color space                      : YUV
Chroma subsampling               : 4:2:0
Bit depth                        : 8 bits
Scan type                        : Progressive
Compression mode                 : Lossy
Bits/(Pixel*Frame)               : 0.222
Stream size                      : 1.19 GiB (89%)
Writing library                  : XviD 73

Audio
ID                               : 1
Format                           : AC-3
Format/Info                      : Audio Coding 3
Mode extension                   : CM (complete main)
Codec ID                         : 2000
Duration                         : 1h 46mn
Bit rate mode                    : Constant
Bit rate                         : 192 Kbps
Channel(s)                       : 2 channels
Channel positions                : Front: L R
Sampling rate                    : 48.0 KHz
Bit depth                        : 16 bits
Compression mode                 : Lossy
Stream size                      : 146 MiB (11%)
Alignment                        : Split accross interleaves
Interleave, duration             : 40 ms (1.00 video frame)
Interleave, preload duration     : 500 ms



Скриншоты:
[+] Всего файлов в раздаче - 2:
01. Большой артист. .2019.WEB-DLRip. Files-x.avi1.34 GB
02. Большой артист. .2019.WEB-DLRip. Files-x.avi1.41 GB

Показать еще раздачи по запросу большой:
2019-07-27 U Большой хак / The Great Hack (2019) WEB-DLRip от ExKinoRay | P 1.45 GB ↑ 418 ↓ 97
2019-07-19 U Большой брат / Big Brother / Dai si hing (2018) BDRip-AVC от OlLanDGroup | P 1.40 GB ↑ 51 ↓ 14
2019-07-18 U Большой брат / Big Brother / Dai si hing (2018) BDRip 1080p от OlLanDGroup | HDRezka Studio 8.62 GB ↑ 74 ↓ 37
2019-07-18 U Большой брат / Big Brother / Dai si hing (2018) BDRip от MegaPeer | HDRezka Studio 1.46 GB ↑ 222 ↓ 51
2019-04-30 U Большой злой лис и другие сказки / Le grand méchant renard et autres contes... (2017) BDRip | SDI Media 1.46 GB ↑ 137 ↓ 27
2019-04-29 U Большой кошачий побег / Mao yu tao hua yuan / Cats & Peachtopia (2018) WEB-DLRip от MegaPeer | iTunes 1.46 GB ↑ 229 ↓ 60
2019-04-01 U В погоне за Бонни и Клайдом / Разбойники с большой дороги / The Highwaymen (2019) WEB-DLRip от Scarabey | АРК-ТВ Studio & VSI International 2.17 GB ↑ 103 ↓ 32

Отзывы
Зарегистрируйтесь чтобы добавить комментарий.
Обратная связь
Copyleft ©