↑↓Torrent.by
Поиск
Логин: Регистрация
Пароль: Восстановить пароль
Загрузка...

Мстители: Война бесконечности / Avengers: Infinity War (2018) HybridRip-HEVC 1080p от M@kSIMus | D | Open Matte

Скачать mstiteli-voyna-beskonechnosti-avengers-infinity-war-2018-hybridrip-hevc-1080p-ot-m-ksimus-d-open-matte.torrent
U Магнитная ссылка Размер: 9.97 GB Раздают: 65 Качают: 32 Добавлен: 2019-05-07 07:42:06
Мстители: Война бесконечности / Avengers: Infinity War (2018) HybridRip-HEVC 1080p от M@kSIMus | D | Open Matte

Название: Мстители: Война бесконечности
Оригинальное название: Avengers: Infinity War
Год выхода: 2018
Производство: США / Marvel Studios, Jason Roberts Productions, South Pictures
Жанр:  Фантастика, приключения
Продолжительность: 02:29:21

Режиссер: Энтони Руссо, Джо Руссо
В ролях: Роберт Дауни мл., Крис Хемсворт, Марк Руффало, Крис Эванс, Скарлетт Йоханссон, Дон Чидл, Бенедикт Камбербэтч, Том Холланд, Чэдвик Боузмэн, Зои Салдана, Карен Гиллан, Том Хиддлстон, Крис Пратт, Пол Беттани, Элизабет Олсен, Себастиан Стэн, Идрис Эльба, Дэйв Батиста, Гвинет Пэлтроу, Бенисио Дель Торо

Описание: Пока Мстители и их союзники продолжают защищать мир от различных опасностей, с которыми не смог бы справиться один супергерой, новая угроза возникает из космоса: Танос. Межгалактический тиран преследует цель собрать все шесть Камней Бесконечности — артефакты невероятной силы, с помощью которых можно менять реальность по своему желанию. Всё, с чем Мстители сталкивались ранее, вело к этому моменту — судьба Земли никогда ещё не была столь неопределённой.

Качество: Hybrid BDRip 1080p-HEVC
Видео: HEVC/H.265, 1920x1080, ~7119 Kbps, 10 bit
Аудио 01: AC3, 6 ch, 640 Kbps | Русский, Дублированный
Аудио 02: AC3, 6 ch, 448 Kbps | Русский, Авторский (Живов)
Аудио 03: AC3, 6 ch, 448 Kbps | Русский, Авторский (Чадов)
Аудио 04: AC3, 6 ch, 448 Kbps | Украинский, Дублированный
Аудио 05: AC3, 6 ch, 448 Kbps | Английский, Оригинал
Субтитры: Русские (форсированные, полные), английские (полные)

Релиз от: M@kSIMus


[+] Mediainfo
x265 info: frame I:   2286, Avg QP:18.60  kb/s: 22953.03
x265 info: frame P:  47345, Avg QP:20.09  kb/s: 14051.58
x265 info: frame B: 165224, Avg QP:22.17  kb/s: 4912.66
x265 info: Weighted P-Frames: Y:9.7% UV:8.1%
x265 info: Weighted B-Frames: Y:9.5% UV:7.5%
x265 info: consecutive B-frames: 13.3% 6.8% 8.7% 22.2% 11.5% 32.4% 3.9% 0.6% 0.2% 0.2% 0.1% 0.3% 0.1%
x265 info:
encoded 214855 frames in 280567.82s (0.77 fps), 7118.44 kb/s, Avg QP:21.67

Общее
Уникальный идентификатор                 : 111543625464996072182060803920806676906 (0x53EA8555B1F8F288FD336E2EC6BA09AA)
Полное имя                               : F:ВидеоЗарубежные фильмыВселенная MARVEL19. Мстители - Война бесконечности (2018) [Open Matte] Hybrid 1080p [HEVC] 10 bit.mkv
Формат                                   : Matroska
Версия формата                           : Version 4
Размер файла                             : 9,97 Гбайт
Продолжительность                        : 2 ч. 29 м.
Общий поток                              : 9554 Кбит/сек
Название фильма                          : Мстители - Война бесконечности (2018) Encoded_by_M@kSIMus
Дата кодирования                         : UTC 2019-05-06 09:25:56
Программа кодирования                    : mkvmerge v30.1.0 ('Forever And More') 64-bit
Библиотека кодирования                   : libebml v1.3.6 + libmatroska v1.4.9
Обложка                                  : Yes
Attachments                              : cover.jpg

Видео
Идентификатор                            : 1
Формат                                   : HEVC
Формат/Информация                        : High Efficiency Video Coding
Профиль формата                          : Main 10@L4.1@High
Идентификатор кодека                     : V_MPEGH/ISO/HEVC
Продолжительность                        : 2 ч. 29 м.
Битрейт                                  : 7119 Кбит/сек
Ширина                                   : 1920 пикселей
Высота                                   : 1080 пикселей
Соотношение сторон                       : 16:9
Режим частоты кадров                     : Постоянный
Частота кадров                           : 23,976 (24000/1001) кадра/сек
Цветовое пространство                    : YUV
Субдискретизация насыщенности            : 4:2:0
Битовая глубина                          : 10 бит
Бит/(Пиксели*Кадры)                      : 0.143
Размер потока                            : 7,43 Гбайт (75%)
Заголовок                                : Мстители - Война бесконечности (2018) Encoded_by_M@kSIMus
Библиотека кодирования                   : x265 2.9+9-f74003e88622:[Windows][GCC 8.2.0][64 bit] 10bit
Настройки программы                      : cpuid=1049583 / frame-threads=5 / numa-pools=4 / wpp / no-pmode / no-pme / no-psnr / no-ssim / log-level=3 / input-csp=1 / input-res=1920x1080 / interlace=0 / total-frames=0 / level-idc=41 / high-tier=1 / uhd-bd=0 / ref=4 / allow-non-conformance / no-repeat-headers / annexb / no-aud / no-hrd / info / hash=0 / no-temporal-layers / open-gop / min-keyint=24 / keyint=240 / gop-lookahead=0 / bframes=12 / b-adapt=2 / b-pyramid / bframe-bias=0 / rc-lookahead=40 / lookahead-slices=6 / scenecut=40 / radl=0 / no-intra-refresh / ctu=32 / min-cu-size=8 / rect / no-amp / max-tu-size=32 / tu-inter-depth=4 / tu-intra-depth=4 / limit-tu=1 / rdoq-level=1 / dynamic-rd=0.00 / no-ssim-rd / signhide / no-tskip / nr-intra=0 / nr-inter=0 / no-constrained-intra / no-strong-intra-smoothing / max-merge=5 / limit-refs=3 / no-limit-modes / me=3 / subme=7 / merange=57 / temporal-mvp / weightp / weightb / no-analyze-src-pics / deblock=-3:-3 / no-sao / no-sao-non-deblock / rd=4 / no-early-skip / no-rskip / no-fast-intra / no-tskip-fast / no-cu-lossless / no-b-intra / no-splitrd-skip / rdpenalty=0 / psy-rd=2.00 / psy-rdoq=1.00 / no-rd-refine / no-lossless / cbqpoffs=0 / crqpoffs=0 / rc=crf / crf=22.0 / qcomp=0.60 / qpstep=4 / stats-write=0 / stats-read=0 / vbv-maxrate=50000 / vbv-bufsize=50000 / vbv-init=0.9 / crf-max=0.0 / crf-min=0.0 / ipratio=1.40 / pbratio=1.30 / aq-mode=3 / aq-strength=1.00 / no-cutree / zone-count=0 / no-strict-cbr / qg-size=32 / no-rc-grain / qpmax=69 / qpmin=0 / no-const-vbv / sar=1 / overscan=0 / videoformat=5 / range=0 / colorprim=1 / transfer=1 / colormatrix=1 / chromaloc=0 / display-window=0 / max-cll=0,0 / min-luma=0 / max-luma=1023 / log2-max-poc-lsb=8 / vui-timing-info / vui-hrd-info / slices=1 / no-opt-qp-pps / no-opt-ref-list-length-pps / no-multi-pass-opt-rps / scenecut-bias=0.05 / no-opt-cu-delta-qp / no-aq-motion / no-hdr / no-hdr-opt / no-dhdr10-opt / no-idr-recovery-sei / analysis-reuse-level=5 / scale-factor=0 / refine-intra=0 / refine-inter=0 / refine-mv=0 / no-limit-sao / ctu-info=0 / no-lowpass-dct / refine-mv-type=0 / copy-pic=1 / max-ausize-factor=1.0 / no-dynamic-refine / no-single-sei
Язык                                     : English
Default                                  : Да
Forced                                   : Нет
Цветовой диапазон                        : Limited
Основные цвета                           : BT.709
Характеристики трансфера                 : BT.709
Коэффициенты матрицы                     : BT.709

Аудио #1
Идентификатор                            : 2
Формат                                   : AC-3
Формат/Информация                        : Audio Coding 3
Коммерческое название                    : Dolby Digital
Идентификатор кодека                     : A_AC3
Продолжительность                        : 2 ч. 29 м.
Вид битрейта                             : Постоянный
Битрейт                                  : 640 Кбит/сек
Каналы                                   : 6 каналов
ChannelLayout                            : L R C LFE Ls Rs
Частота                                  : 48,0 КГц
Частота кадров                           : 31,250 кадров/сек (1536 SPF)
Битовая глубина                          : 16 бит
Метод сжатия                             : С потерями
Размер потока                            : 684 Мбайт (7%)
Заголовок                                : Дубляж
Язык                                     : Russian
Default                                  : Да
Forced                                   : Нет

Аудио #2
Идентификатор                            : 3
Формат                                   : AC-3
Формат/Информация                        : Audio Coding 3
Коммерческое название                    : Dolby Digital
Идентификатор кодека                     : A_AC3
Продолжительность                        : 2 ч. 29 м.
Вид битрейта                             : Постоянный
Битрейт                                  : 448 Кбит/сек
Каналы                                   : 6 каналов
ChannelLayout                            : L R C LFE Ls Rs
Частота                                  : 48,0 КГц
Частота кадров                           : 31,250 кадров/сек (1536 SPF)
Битовая глубина                          : 16 бит
Метод сжатия                             : С потерями
Размер потока                            : 479 Мбайт (5%)
Заголовок                                : AVO (Живов)
Язык                                     : Russian
Default                                  : Нет
Forced                                   : Нет

Аудио #3
Идентификатор                            : 4
Формат                                   : AC-3
Формат/Информация                        : Audio Coding 3
Коммерческое название                    : Dolby Digital
Идентификатор кодека                     : A_AC3
Продолжительность                        : 2 ч. 29 м.
Вид битрейта                             : Постоянный
Битрейт                                  : 448 Кбит/сек
Каналы                                   : 6 каналов
ChannelLayout                            : L R C LFE Ls Rs
Частота                                  : 48,0 КГц
Частота кадров                           : 31,250 кадров/сек (1536 SPF)
Битовая глубина                          : 16 бит
Метод сжатия                             : С потерями
Размер потока                            : 479 Мбайт (5%)
Заголовок                                : AVO (Чадов)
Язык                                     : Russian
Default                                  : Нет
Forced                                   : Нет

Аудио #4
Идентификатор                            : 5
Формат                                   : AC-3
Формат/Информация                        : Audio Coding 3
Коммерческое название                    : Dolby Digital
Идентификатор кодека                     : A_AC3
Продолжительность                        : 2 ч. 29 м.
Вид битрейта                             : Постоянный
Битрейт                                  : 448 Кбит/сек
Каналы                                   : 6 каналов
ChannelLayout                            : L R C LFE Ls Rs
Частота                                  : 48,0 КГц
Частота кадров                           : 31,250 кадров/сек (1536 SPF)
Битовая глубина                          : 16 бит
Метод сжатия                             : С потерями
Размер потока                            : 479 Мбайт (5%)
Заголовок                                : Дубляж
Язык                                     : Ukrainian
Default                                  : Нет
Forced                                   : Нет

Аудио #5
Идентификатор                            : 6
Формат                                   : AC-3
Формат/Информация                        : Audio Coding 3
Коммерческое название                    : Dolby Digital
Идентификатор кодека                     : A_AC3
Продолжительность                        : 2 ч. 29 м.
Вид битрейта                             : Постоянный
Битрейт                                  : 448 Кбит/сек
Каналы                                   : 6 каналов
ChannelLayout                            : L R C LFE Ls Rs
Частота                                  : 48,0 КГц
Частота кадров                           : 31,250 кадров/сек (1536 SPF)
Битовая глубина                          : 16 бит
Метод сжатия                             : С потерями
Размер потока                            : 479 Мбайт (5%)
Заголовок                                : Оригинал
Язык                                     : English
Default                                  : Нет
Forced                                   : Нет

Текст #1
Идентификатор                            : 7
Формат                                   : UTF-8
Идентификатор кодека                     : S_TEXT/UTF8
Идентификатор кодека/Информация          : UTF-8 Plain Text
Продолжительность                        : 2 ч. 12 м.
Битрейт                                  : 0 бит/сек
ElementCount                             : 14
Размер потока                            : 373 байт (0%)
Заголовок                                : Rus Forced
Язык                                     : Russian
Default                                  : Да
Forced                                   : Да

Текст #2
Идентификатор                            : 8
Формат                                   : UTF-8
Идентификатор кодека                     : S_TEXT/UTF8
Идентификатор кодека/Информация          : UTF-8 Plain Text
Продолжительность                        : 2 ч. 28 м.
Битрейт                                  : 64 бит/сек
ElementCount                             : 1596
Размер потока                            : 70,4 Кбайт (0%)
Заголовок                                : Rus Full
Язык                                     : Russian
Default                                  : Нет
Forced                                   : Нет

Текст #3
Идентификатор                            : 9
Формат                                   : UTF-8
Идентификатор кодека                     : S_TEXT/UTF8
Идентификатор кодека/Информация          : UTF-8 Plain Text
Продолжительность                        : 2 ч. 28 м.
Битрейт                                  : 42 бит/сек
ElementCount                             : 1724
Размер потока                            : 46,1 Кбайт (0%)
Заголовок                                : Eng Full
Язык                                     : English
Default                                  : Нет
Forced                                   : Нет

Меню
00:00:00.000                             : en:00:00:00.000
00:11:28.730                             : en:00:11:28.730
00:18:13.884                             : en:00:18:13.884
00:27:23.809                             : en:00:27:23.809
00:35:48.813                             : en:00:35:48.813
00:42:23.541                             : en:00:42:23.541
00:54:12.875                             : en:00:54:12.875
00:59:36.740                             : en:00:59:36.740
01:05:07.153                             : en:01:05:07.153
01:10:53.666                             : en:01:10:53.666
01:17:06.956                             : en:01:17:06.956
01:24:14.758                             : en:01:24:14.758
01:31:08.004                             : en:01:31:08.004
01:42:00.406                             : en:01:42:00.406
01:45:57.810                             : en:01:45:57.810
01:53:04.069                             : en:01:53:04.069
01:58:52.917                             : en:01:58:52.917
02:03:58.181                             : en:02:03:58.181
02:11:13.282                             : en:02:11:13.282
02:17:31.285                             : en:02:17:31.285



Скриншоты:
[+] Всего файлов в раздаче - 1:
19. Мстители - Война бесконечности (2018) [Open Matte] Hybrid 1080p [HEVC] 10 bit.mkv9.97 GB

Показать еще раздачи по запросу мстители:
2019-05-24 U Мстители: Финал / Avengers: Endgame (2019) TC | Proper | Line 2.75 GB ↑ 84 ↓ 168
2019-05-23 U Мстители: Финал / Avengers: Endgame (2019) TC от Dalemake | Line 2.19 GB ↑ 113 ↓ 128
2019-05-11 U Мстители: Финал / Avengers: Endgame (2019) TC | Proper | SUB 2.19 GB ↑ 584 ↓ 102
2019-05-10 U Мстители: Война бесконечности / Avengers: Infinity War (2018) HDRip от Scarabey | D | Open Matte 2.18 GB ↑ 96 ↓ 20
2019-03-15 U Мстители: Финал / Avengers: Endgame (2019) WEBRip 1080p | Трейлер №2 631.47 MB ↑ 155 ↓ 48
2019-01-05 U Мстители: Война бесконечности / Avengers: Infinity War (2018) HybridRip-HEVC 1080p от M@kSIMus | D | Open Matte 7.02 GB ↑ 139 ↓ 17
2019-01-02 U Мстители: Война бесконечности / Avengers: Infinity War (2018) HybridRip-AVC | D | Open Matte 4.35 GB ↑ 204 ↓ 113

Отзывы
Зарегистрируйтесь чтобы добавить комментарий.
Обратная связь
Copyleft ©