↑↓Torrent.by
Поиск
Логин: Регистрация
Пароль: Восстановить пароль
Загрузка...

Железное небо 2: Грядущая раса / Iron Sky: The Coming Race (2019) WEB-DL 720p | BadBajo

Скачать zheleznoe-nebo-2-gryaduschaya-rasa-iron-sky-the-coming-race-2019-web-dl-720p-badbajo.torrent
U Магнитная ссылка Размер: 3.36 GB Раздают: 173 Качают: 41 Добавлен: 2019-05-08 07:01:33
Железное небо 2: Грядущая раса / Iron Sky: The Coming Race (2019) WEB-DL 720p | BadBajo

Название: Железное небо 2: Грядущая раса
Оригинальное название: Iron Sky: The Coming Race
Год выхода: 2019
Жанр: Фантастика, боевик, комедия, приключения
Режиссер: Тимо Вуоренсола
В ролях: Лара Росси, Владимир Бурлаков, Кит Дэйл, Том Грин, Юлия Дитце, Эдвард Джадж, Мартин Сваби, Эмили Атак, Удо Кир, Джон Фландерс

О фильме:
Спустя 20 лет после событий первого фильма остатки человечества вынуждены переселиться на ту самую базу, основанную в 1945 году сбежавшими нацистами на тёмной стороне Луны — жизнь на планете Земля погибла после разрушительной ядерной войны. Но в пустыне, лежащей посреди ядерной зимы, имеется секрет, касающийся появления человеческой расы, и этот секрет способен возродить былое величие людей или навеки похоронить их надежды на возвращение домой. Отряд людей во главе с отважной Оби Вашингтон отправится на Землю, чтобы бросить вызов армии рептилий Врила — древней космической расы, которая захватила половину галактики и Землю в том числе.

Страна: Финляндия, Германия, Бельгия
Студия: Iron Sky Universe, 27 Films Production, Potemkino
Продолжительность: 01:32:45
Перевод: Авторский одноголосый | BadBajo

Файл
Кодек: AVC
Качество: WEB-DL 720p | Iron.Sky.The.Coming.Race.2019.720p.AMZN.WEB-DL.DDP5.1.H.264-NTG
Видео: MPEG-4 AVC, 4159 Kбит/с, 1280x544, 23.976 кадр/с
Звук: Без Рекламы!
Аудио #1: Русский (АС3, 6ch, 384 Кбит/с, 48.0 KHz) Авторский (одноголосый, закадровый) BadBajo
Аудио #2: Английский (E-АС3, 6ch, 640 Кбит/с, 48.0 KHz)
Субтитры: нет


[+] MediaInfo
Источник: Iron.Sky.The.Coming.Race.2019.720p.AMZN.WEB-DL.DDP5.1.H.264-NTG
General
Unique ID                      : 215749805689774668054871470110046690176 (0xA24FE6B048788165B712DE574C4C1B80)
Complete name                  : Iron.Sky.The.Coming.Race.2019.WEB-DL.720p.mkv
Format                         : Matroska
Format version                 : Version 4 / Version 2
File size                      : 3.36 GiB
Duration                       : 1 h 32 min
Overall bit rate mode          : Constant
Overall bit rate               : 5 185 kb/s
Encoded date                   : UTC 2019-05-07 17:09:26
Writing application            : mkvmerge v7.1.0 ('Good Love') 64bit built on Jul 27 2014 13:06:55
Writing library                : libebml v1.3.0 + libmatroska v1.4.1

Video
ID                             : 1
Format                         : AVC
Format/Info                    : Advanced Video Codec
Format profile                 : High@L3.1
Format settings, CABAC         : Yes
Format settings, RefFrames     : 4 frames
Codec ID                       : V_MPEG4/ISO/AVC
Duration                       : 1 h 32 min
Bit rate mode                  : Constant
Bit rate                       : 4 159 kb/s
Nominal bit rate               : 6 000 kb/s
Width                          : 1 280 pixels
Height                         : 544 pixels
Display aspect ratio           : 2.35:1
Original display aspect ratio  : 2.35:1
Frame rate mode                : Constant
Frame rate                     : 23.976 (24000/1001) FPS
Color space                    : YUV
Chroma subsampling             : 4:2:0
Bit depth                      : 8 bits
Scan type                      : Progressive
Bits/(Pixel*Frame)             : 0.249
Stream size                    : 2.69 GiB (80%)
Language                       : English
Default                        : Yes
Forced                         : No
Color range                    : Limited
Color primaries                : BT.709
Transfer characteristics       : BT.709
Matrix coefficients            : BT.709

Audio #1
ID                             : 2
Format                         : AC-3
Format/Info                    : Audio Coding 3
Format settings, Endianness    : Big
Codec ID                       : A_AC3
Duration                       : 1 h 32 min
Bit rate mode                  : Constant
Bit rate                       : 384 kb/s
Channel(s)                     : 6 channels
Channel positions              : Front: L C R, Side: L R, LFE
Sampling rate                  : 48.0 kHz
Frame rate                     : 31.250 FPS (1536 SPF)
Bit depth                      : 16 bits
Compression mode               : Lossy
Stream size                    : 255 MiB (7%)
Language                       : Russian
Service kind                   : Complete Main
Default                        : Yes
Forced                         : No

Audio #2
ID                             : 3
Format                         : E-AC-3
Format/Info                    : Enhanced Audio Coding 3
Format settings, Endianness    : Big
Codec ID                       : A_EAC3
Duration                       : 1 h 32 min
Bit rate mode                  : Constant
Bit rate                       : 640 kb/s
Channel(s)                     : 6 channels
Channel positions              : Front: L C R, Side: L R, LFE
Sampling rate                  : 48.0 kHz
Frame rate                     : 187.500 FPS (256 SPF)
Compression mode               : Lossy
Stream size                    : 425 MiB (12%)
Language                       : English
Service kind                   : Complete Main
Default                        : No
Forced                         : No



Скриншоты:
[+] Всего файлов в раздаче - 1:
Iron.Sky.The.Coming.Race.2019.WEB-DL.720p.mkv3.36 GB

Показать еще раздачи по запросу железное:
2019-05-19 U Железное небо 2: Грядущая раса / Iron Sky: The Coming Race (2019) BDRip-AVC | P, A 2.84 GB ↑ 221 ↓ 82
2019-05-11 U Железное небо 2: Грядущая раса / Iron Sky: The Coming Race (2019) BDRip-AVC от ExKinoRay | BadBajo 1.98 GB ↑ 75 ↓ 29
2019-05-11 U Железное небо 2: Грядущая раса / Iron Sky: The Coming Race (2019) BDRip 1080p | L2, A 7.96 GB ↑ 171 ↓ 52
2019-05-10 U Железное небо 2: Грядущая раса / Iron Sky: The Coming Race (2019) BDRip от MegaPeer | BadBajo 1.46 GB ↑ 87 ↓ 57
2019-05-10 U Железное небо 2: Грядущая раса / Iron Sky: The Coming Race (2019) BDRip 720p | BadBajo 4.79 GB ↑ 98 ↓ 44
2019-05-08 U Железное небо 2: Грядущая раса / Iron Sky: The Coming Race (2019) WEB-DLRip-AVC от ExKinoRay | BadBajo 1.87 GB ↑ 68 ↓ 33
2019-05-08 U Железное небо 2: Грядущая раса / Iron Sky: The Coming Race (2019) WEB-DLRip-AVC от ExKinoRay | BadBajo 746.72 MB ↑ 57 ↓ 27

Отзывы
mariadaria88
Финал отличный!
Надеюсь, они не будут в 3-ей части устраивать новую войну и займутся мирным строительством))

Зарегистрируйтесь чтобы добавить комментарий.
Обратная связь
Copyleft ©