↑↓Torrent.by
Поиск
Логин: Регистрация
Пароль: Восстановить пароль
Загрузка...

Железное небо 2: Грядущая раса / Iron Sky: The Coming Race (2019) WEB-DLRip-AVC от ExKinoRay | BadBajo

Скачать zheleznoe-nebo-2-gryaduschaya-rasa-iron-sky-the-coming-race-2019-web-dlrip-avc-ot-exkinoray-badbajo.torrent
U Магнитная ссылка Размер: 1.87 GB Раздают: 77 Качают: 33 Добавлен: 2019-05-08 07:03:32
Железное небо 2: Грядущая раса / Iron Sky: The Coming Race (2019) WEB-DLRip-AVC от ExKinoRay | BadBajo

Название: Железное небо 2: Грядущая раса
Оригинальное название: Iron Sky: The Coming Race
Год выхода: 2019
Жанр: Фантастика, Боевик, Комедия, Приключения
Режиссер: Тимо Вуоренсола
В ролях: Лара Росси, Владимир Бурлаков, Кит Дэйл, Том Грин, Юлия Дитце, Эдвард Джадж, Мартин Сваби, Эмили Атак, Удо Кир, Джон Фландерс

Описание:   Спустя 20 лет после событий первого фильма остатки человечества вынуждены переселиться на ту самую базу, основанную в 1945 году сбежавшими нацистами на тёмной стороне Луны — жизнь на планете Земля погибла после разрушительной ядерной войны. Но в пустыне, лежащей посреди ядерной зимы, имеется секрет, касающийся появления человеческой расы, и этот секрет способен возродить былое величие людей или навеки похоронить их надежды на возвращение домой. Отряд людей во главе с отважной Оби Вашингтон отправится на Землю, чтобы бросить вызов армии рептилий Врила — древней космической расы, которая захватила половину галактики и Землю в том числе.

Страна: Финляндия, Германия, Бельгия
Студия: Iron Sky Universe, 27 Films Production, Potemkino
Продолжительность: 01:32:45
Перевод: Авторский - А.Важенин [BadBajo]

БЕЗ КАКОЙ-ЛИБО РЕКЛАМЫ!

Формат: MKV
Качество: WEB-DLRip-AVC
Видео: MPEG-4 AVC,   1024х428 (2.40:1), 2119 Kbit/s, 23.976 fps, 0,202 bpp
Звук:
Аудио 1: 48 kHz, AC3, 5.1 ch, 384 Kbps | RUS |
Аудио 2: 48 kHz, AC3, 5.1 ch, 384 Kbps | ENG |
Субтитры: Английские

Релиз:

Автор релиза:
[+] ОтчетМедиаИнфо
General
Unique ID                                : 196784693330573294492207426463921325792 (0x940B5A7507C351448598402C27FBC6E0)
Complete name                            : D:Iron.Sky.The.Coming.Race.2019.AVO.WEB-DLRip.AVC.ExKinoRay.mkv
Format                                   : Matroska
Format version                           : Version 2
File size                                : 1.87 GiB
Duration                                 : 1 h 32 min
Overall bit rate                         : 2 889 kb/s
Movie name                               : Iron Sky The Coming Race 2019 from ExKinoRay
Encoded date                             : UTC 2019-05-08 00:05:01
Writing application                      : mkvmerge v5.6.0 ('Kenya Kane') built on May 27 2012 16:44:04
Writing library                          : libebml v1.2.3 + libmatroska v1.3.0

Video
ID                                       : 1
Format                                   : AVC
Format/Info                              : Advanced Video Codec
Format profile                           : High@L4.1
Format settings, CABAC                   : Yes
Format settings, ReFrames                : 11 frames
Codec ID                                 : V_MPEG4/ISO/AVC
Duration                                 : 1 h 32 min
Bit rate                                 : 2 119 kb/s
Width                                    : 1 024 pixels
Height                                   : 428 pixels
Display aspect ratio                     : 2.40:1
Frame rate mode                          : Constant
Frame rate                               : 23.976 (23976/1000) FPS
Color space                              : YUV
Chroma subsampling                       : 4:2:0
Bit depth                                : 8 bits
Scan type                                : Progressive
Bits/(Pixel*Frame)                       : 0.202
Stream size                              : 1.34 GiB (71%)
Title                                    : Enigma
Writing library                          : x264 core 152 r2851 ba24899
Encoding settings                        : cabac=1 / ref=11 / deblock=1:-2:-2 / analyse=0x3:0x113 / me=umh / subme=10 / psy=1 / psy_rd=1.05:0.10 / mixed_ref=1 / me_range=32 / chroma_me=1 / trellis=2 / 8x8dct=1 / cqm=0 / deadzone=21,11 / fast_pskip=0 / chroma_qp_offset=-3 / threads=12 / lookahead_threads=3 / sliced_threads=0 / nr=0 / decimate=0 / interlaced=0 / bluray_compat=0 / constrained_intra=0 / bframes=10 / b_pyramid=2 / b_adapt=2 / b_bias=0 / direct=3 / weightb=1 / open_gop=0 / weightp=2 / keyint=240 / keyint_min=23 / scenecut=40 / intra_refresh=0 / rc=2pass / mbtree=0 / bitrate=2119 / ratetol=1.0 / qcomp=0.60 / qpmin=0 / qpmax=51 / qpstep=4 / cplxblur=20.0 / qblur=0.5 / ip_ratio=1.30 / pb_ratio=1.20 / aq=3:0.90
Language                                 : English
Default                                  : Yes
Forced                                   : No
Color range                              : Limited
Color primaries                          : BT.709
Transfer characteristics                 : BT.709
Matrix coefficients                      : BT.709

Audio #1
ID                                       : 2
Format                                   : AC-3
Format/Info                              : Audio Coding 3
Mode extension                           : CM (complete main)
Format settings, Endianness              : Big
Codec ID                                 : A_AC3
Duration                                 : 1 h 32 min
Bit rate mode                            : Constant
Bit rate                                 : 384 kb/s
Channel(s)                               : 6 channels
Channel positions                        : Front: L C R, Side: L R, LFE
Sampling rate                            : 48.0 kHz
Frame rate                               : 31.250 FPS (1536 spf)
Compression mode                         : Lossy
Stream size                              : 255 MiB (13%)
Title                                    : AVO (BadBajo)
Language                                 : Russian
Default                                  : Yes
Forced                                   : No

Audio #2
ID                                       : 3
Format                                   : AC-3
Format/Info                              : Audio Coding 3
Mode extension                           : CM (complete main)
Format settings, Endianness              : Big
Codec ID                                 : A_AC3
Duration                                 : 1 h 32 min
Bit rate mode                            : Constant
Bit rate                                 : 384 kb/s
Channel(s)                               : 6 channels
Channel positions                        : Front: L C R, Side: L R, LFE
Sampling rate                            : 48.0 kHz
Frame rate                               : 31.250 FPS (1536 spf)
Compression mode                         : Lossy
Stream size                              : 255 MiB (13%)
Language                                 : English
Default                                  : No
Forced                                   : No

Text
ID                                       : 4
Format                                   : UTF-8
Codec ID                                 : S_TEXT/UTF8
Codec ID/Info                            : UTF-8 Plain Text
Language                                 : English
Default                                  : No
Forced                                   : No

Menu
00:00:00.000                             : en:1
00:24:01.000                             : en:2
00:49:50.000                             : en:3
01:10:21.000                             : en:4
01:24:35.000                             : en:5




Скриншоты:
[+] Всего файлов в раздаче - 1:
Iron.Sky.The.Coming.Race.2019.AVO.WEB-DLRip.AVC.ExKinoRay.mkv1.87 GB

Показать еще раздачи по запросу железное:
2019-07-13 U Железное небо 2: Грядущая раса / Iron Sky: The Coming Race (2019) BDRip 720p от k.e.n & MegaPeer | P, A 4.08 GB ↑ 65 ↓ 14
2019-07-06 U Железное небо 2: Грядущая раса / Iron Sky: The Coming Race (2019) BDRip-AVC | P, A 3.01 GB ↑ 50 ↓ 22
2019-07-05 U Железное небо 2: Грядущая раса / Iron Sky: The Coming Race (2019) BDRip-HEVC 1080p | P, A 6.74 GB ↑ 52 ↓ 36
2019-07-05 U Железное небо 2: Грядущая раса / Iron Sky: The Coming Race (2019) BDRip | HDRezka Studio 1.46 GB ↑ 130 ↓ 44
2019-07-04 U Железное небо 2: Грядущая раса / Iron Sky: The Coming Race (2019) BDRip-AVC | P, A 2.84 GB ↑ 80 ↓ 23
2019-05-19 U Железное небо 2: Грядущая раса / Iron Sky: The Coming Race (2019) BDRip-AVC | P, A 2.84 GB ↑ 222 ↓ 86
2019-05-11 U Железное небо 2: Грядущая раса / Iron Sky: The Coming Race (2019) BDRip-AVC от ExKinoRay | BadBajo 1.98 GB ↑ 78 ↓ 29

Отзывы
Зарегистрируйтесь чтобы добавить комментарий.
Обратная связь
Copyleft ©