↑↓Torrent.by
Поиск
Логин: Регистрация
Пароль: Восстановить пароль
Загрузка...

Мисс Пуля / Miss Bala (2019) HDRip от Portablius | iTunes

Скачать miss-pulya-bala-2019-hdrip-ot-portablius-itunes.torrent
U Магнитная ссылка Размер: 746.63 MB Раздают: 102 Качают: 46 Добавлен: 2019-05-08 16:53:02
Мисс Пуля / Miss Bala (2019) HDRip от Portablius | iTunes

Название: Мисс Пуля
Оригинальное название: Miss Bala
Год выхода: 2019
Жанр: Боевик, триллер, драма
Режиссер: Кэтрин Хардвик
В ролях: Джина Родригез, Энтони Маки, Исмаэль Круз, Мэтт Лауриа, Томас Деккер, Айслинн Дербес, Кристина Рольдо, Рикардо Абарка, Даниэла де ла Фе, Уилл Блэгроув

О фильме: Участница конкурса красоты Глория становится свидетельницей жестокой бандитской расправы и попадает в руки харизматичного наркобарона. С помощью шантажа и угроз он использует отчаянную красавицу как пешку в своей игре против ЦРУ и УБН.

Страна: Мексика, США
Студия: Canana Films, Misher Films, Sony Pictures Entertainment
Продолжительность: 01:43:58
Перевод: Профессиональный (многоголосый, закадровый) | iTunes
Субтитры: Русские, форсированные (отдельно)

Файл
Кодек: XviD
Качество: HDRip
Видео: 688x288 (2.39:1), 23.976 fps, XviD build 73 ~866 kbps avg, 0.18 bit/pixel
Звук: 48 kHz, MPEG Layer 3, 2 ch, ~128.00 kbps avg


[+] MediaInfo
General
Complete name               : Miss.Bala.2019.HDRip.Portablius.avi
Format                      : AVI
Format/Info                 : Audio Video Interleave
File size                   : 747 MiB
Duration                    : 1 h 43 min
Overall bit rate            : 1 004 kb/s
Writing application         : VirtualDubMod 1.5.10.3 | www.virtualdub-fr.org || (build 2550/release)
Writing library             : VirtualDubMod build 2550/release

Video
ID                          : 0
Format                      : MPEG-4 Visual
Format profile              : Advanced Simple@L5
Format settings             : BVOP1 / Custom Matrix
Format settings, BVOP       : 1
Format settings, QPel       : No
Format settings, GMC        : No warppoints
Format settings, Matrix     : Custom
Codec ID                    : XVID
Codec ID/Hint               : XviD
Duration                    : 1 h 43 min
Bit rate                    : 867 kb/s
Width                       : 688 pixels
Height                      : 288 pixels
Display aspect ratio        : 2.40:1
Frame rate                  : 23.976 (24000/1001) FPS
Color space                 : YUV
Chroma subsampling          : 4:2:0
Bit depth                   : 8 bits
Scan type                   : Progressive
Compression mode            : Lossy
Bits/(Pixel*Frame)          : 0.182
Stream size                 : 645 MiB (86%)
Writing library             : XviD 73

Audio
ID                          : 1
Format                      : MPEG Audio
Format version              : Version 1
Format profile              : Layer 3
Codec ID                    : 55
Codec ID/Hint               : MP3
Duration                    : 1 h 43 min
Bit rate mode               : Constant
Bit rate                    : 128 kb/s
Channel(s)                  : 2 channels
Sampling rate               : 48.0 kHz
Frame rate                  : 41.667 FPS (1152 SPF)
Compression mode            : Lossy
Stream size                 : 95.2 MiB (13%)
Alignment                   : Aligned on interleaves
Interleave, duration        : 42  ms (1.00 video frame)
Interleave, preload duratio : 504  ms
Writing library             : LAME3.99r
Encoding settings           : -m s -V 4 -q 2 -lowpass 17 -b 128




Скриншоты:
[+] Всего файлов в раздаче - 2:
Miss.Bala.2019.HDRip.Portablius.srt197.00 B
Miss.Bala.2019.HDRip.Portablius.avi746.63 MB

Показать еще раздачи по запросу мисс:
2019-05-12 U Мисс Пуля / Miss Bala (2019) BDRip-HEVC 1080p от Donatik | iTunes 3.51 GB ↑ 63 ↓ 30
2019-05-09 U Мисс Пуля / Miss Bala (2019) BDRip от ExKinoRay | P | iTunes 745.98 MB ↑ 72 ↓ 16
2019-05-09 U Мисс Пуля / Miss Bala (2019) BDRip-AVC от ExKinoRay | iTunes 2.64 GB ↑ 88 ↓ 18
2019-05-08 U Мисс Пуля / Miss Bala (2019) BDRemux 1080p от селезень | iTunes 19.99 GB ↑ 89 ↓ 69
2019-05-08 U Мисс Пуля / Miss Bala (2019) BDRip 1080p от селезень | iTunes 10.20 GB ↑ 134 ↓ 102
2019-05-08 U Мисс Пуля / Miss Bala (2019) BDRip от MegaPeer | iTunes 1.41 GB ↑ 169 ↓ 142
2019-05-08 U Мисс Пуля / Miss Bala (2019) BDRip 720p от селезень | iTunes 5.89 GB ↑ 201 ↓ 112

Отзывы
Зарегистрируйтесь чтобы добавить комментарий.
Обратная связь
Copyleft ©