↑↓Torrent.by
Поиск
Логин: Регистрация
Пароль: Восстановить пароль
Загрузка...

Я заберу твоего мертвеца / I'll Take Your Dead (2018) WEB-DL 1080p | L1

Скачать ya-zaberu-tvoego-mertveca-i-ll-take-your-dead-2018-web-dl-1080p-l1.torrent
U Магнитная ссылка Размер: 3.91 GB Раздают: 77 Качают: 93 Добавлен: 2019-05-08 16:53:37
Я заберу твоего мертвеца / I'll Take Your Dead (2018) WEB-DL 1080p | L1

Название: Я заберу твоего мертвеца
Оригинальное название: I'll Take Your Dead
Год выхода: 2018
Жанр: Криминал, ужасы
Режиссер: Чад Арчибальд
В ролях: Эйдан Дивайн, Ава Престон, Джесс Салгейру, Брэндон МакНайт, Эри Миллен, Майкл Ревентан, Раффаэль Бреретон, Адам Кристи, Тавари Дэниел-Симмс, Мо Жюди-Ламур

О фильме:
Фермер Уильям с дочерью Глорией живёт недалеко от города. Так вышло, что его дом стал местом, куда бандиты привозят трупы, и задача Уильяма - заставить тела исчезнуть. Глория уже привыкла к папиному занятию и даже считает, что души погибших теперь населяют их дом. Но однажды установленный порядок нарушается неожиданным событием - одна из привезённых на утилизацию оказывается ещё живой.

Страна: Канада
Студия: Black Fawn Films, Breakthrough Entertainment
Продолжительность: 01:25:45
Перевод: Любительский одноголосый | Хихидок

Файл
Кодек: AVC
Качество: WEB-DL 1080p | Ill.Take.Your.Dead.2018.1080p.AMZN.WEB-DL.DDP5.1.x264-NTG
Видео: MPEG-4 AVC, 5634 Kбит/с, 1920x1080, 23.976 кадр/с
Звук: Без Рекламы!
Аудио #1: Русский (АС3, 2ch, 256 Кбит/с, 48.0 KHz) Любительский (одноголосый, закадровый) Хихикающий доктор
Аудио #2: Английский (E-АС3, 6ch, 640 Кбит/с, 48.0 KHz)
Субтитры: Английские
Трейлер




[+] MediaInfo
Источник: Ill.Take.Your.Dead.2018.1080p.AMZN.WEB-DL.DDP5.1.x264-NTG
General
Unique ID                      : 189460853770494302989133233649418840037 (0x8E88D549BFD9149D8AF816D465D127E5)
Complete name                  : Ill.Take.Your.Dead.2018.WEB-DL.1080p.mkv
Format                         : Matroska
Format version                 : Version 4 / Version 2
File size                      : 3.91 GiB
Duration                       : 1 h 25 min
Overall bit rate               : 6 532 kb/s
Encoded date                   : UTC 2019-05-08 10:06:32
Writing application            : mkvmerge v7.1.0 ('Good Love') 64bit built on Jul 27 2014 13:06:55
Writing library                : libebml v1.3.0 + libmatroska v1.4.1

Video
ID                             : 1
Format                         : AVC
Format/Info                    : Advanced Video Codec
Format profile                 : High@L4
Format settings, CABAC         : Yes
Format settings, RefFrames     : 4 frames
Codec ID                       : V_MPEG4/ISO/AVC
Duration                       : 1 h 25 min
Bit rate mode                  : Constant
Bit rate                       : 5 634 kb/s
Nominal bit rate               : 10 000 kb/s
Width                          : 1 920 pixels
Height                         : 1 080 pixels
Display aspect ratio           : 16:9
Frame rate mode                : Constant
Frame rate                     : 23.976 (24000/1001) FPS
Color space                    : YUV
Chroma subsampling             : 4:2:0
Bit depth                      : 8 bits
Scan type                      : Progressive
Bits/(Pixel*Frame)             : 0.113
Stream size                    : 3.37 GiB (86%)
Language                       : English
Default                        : Yes
Forced                         : No
Color range                    : Limited
Color primaries                : BT.709
Transfer characteristics       : BT.709
Matrix coefficients            : BT.709

Audio #1
ID                             : 2
Format                         : AC-3
Format/Info                    : Audio Coding 3
Format settings, Endianness    : Big
Codec ID                       : A_AC3
Duration                       : 1 h 25 min
Bit rate mode                  : Constant
Bit rate                       : 256 kb/s
Channel(s)                     : 2 channels
Channel positions              : Front: L R
Sampling rate                  : 48.0 kHz
Frame rate                     : 31.250 FPS (1536 SPF)
Bit depth                      : 16 bits
Compression mode               : Lossy
Stream size                    : 157 MiB (4%)
Language                       : Russian
Service kind                   : Complete Main
Default                        : Yes
Forced                         : No

Audio #2
ID                             : 3
Format                         : E-AC-3
Format/Info                    : Enhanced Audio Coding 3
Format settings, Endianness    : Big
Codec ID                       : A_EAC3
Duration                       : 1 h 25 min
Bit rate mode                  : Constant
Bit rate                       : 640 kb/s
Channel(s)                     : 6 channels
Channel positions              : Front: L C R, Side: L R, LFE
Sampling rate                  : 48.0 kHz
Frame rate                     : 187.500 FPS (256 SPF)
Compression mode               : Lossy
Stream size                    : 393 MiB (10%)
Language                       : English
Service kind                   : Complete Main
Default                        : No
Forced                         : No

Text #1
ID                             : 4
Format                         : UTF-8
Codec ID                       : S_TEXT/UTF8
Codec ID/Info                  : UTF-8 Plain Text
Duration                       : 1 h 25 min
Bit rate                       : 37 b/s
Count of elements              : 798
Stream size                    : 23.1 KiB (0%)
Language                       : English
Default                        : No
Forced                         : No

Text #2
ID                             : 5
Format                         : UTF-8
Codec ID                       : S_TEXT/UTF8
Codec ID/Info                  : UTF-8 Plain Text
Duration                       : 1 h 25 min
Bit rate                       : 43 b/s
Count of elements              : 1230
Stream size                    : 27.4 KiB (0%)
Title                          : SDH
Language                       : English
Default                        : No
Forced                         : No

Menu
00:00:00.000                   : en:1
00:09:18.350                   : en:2
00:19:47.729                   : en:3
00:30:03.552                   : en:4
00:39:37.416                   : en:5
00:50:29.109                   : en:6
00:58:41.810                   : en:7
01:09:52.730                   : en:8
01:19:40.441                   : en:9
01:21:51.028                   : en:10



Скриншоты:
[+] Всего файлов в раздаче - 1:
Ill.Take.Your.Dead.2018.WEB-DL.1080p.mkv3.91 GB

Похожие раздачи по запросу - заберу:
2019-05-17 U Я заберу твоего мертвеца / I'll Take Your Dead (2018) WEB-DLRip от OlLanDGroup | HDRezka Studio 1К1.44 GB ↑ 84 ↓ 18
2019-05-16 U Я заберу твоего мертвеца / I'll Take Your Dead (2018) WEB-DL 1080p | HDRezka Studio 3.87 GB ↑ 245 ↓ 157
2019-05-08 U Я заберу твоего мертвеца / I'll Take Your Dead (2019) WEB-DLRip | L1 1.10 GB ↑ 119 ↓ 32
2018-05-28 U Я заберу твои деньги / Blood Money (2017) BDRip от MegaPeer | iTunes 1.42 GB ↑ 57 ↓ 30
2018-05-27 U Я заберу твои деньги / Blood Money (2017) BDRip | A 1.46 GB ↑ 31 ↓ 14
2018-02-20 U Я заберу твои деньги / Blood Money (2017) BDRip | L 1.46 GB ↑ 312 ↓ 151

Отзывы
Зарегистрируйтесь чтобы добавить комментарий.
Обратная связь
Copyleft ©