↑↓Torrent.by
Поиск
Логин: Регистрация
Пароль: Восстановить пароль
Загрузка...

Закат / Napszállta (2018) WEB-DL 1080p от KORSAR | iTunes

Скачать zakat-napsz-llta-2018-web-dl-1080p-ot-korsar-itunes.torrent
U Магнитная ссылка Размер: 5.53 GB Раздают: 86 Качают: 17 Добавлен: 2019-05-08 16:53:58
Закат / Napszállta (2018) WEB-DL 1080p от KORSAR | iTunes

Название: Закат
Оригинальное название: Napszállta
Год выхода: 2018
Жанр:  Драма
Режиссер: Ласло Немеш
В ролях: Эвелин Добош, Сюзанна Вуэст, Юли Якаб, Бьорн Фрайберг, Влад Иванов, Левенте Молнар, Юдит Бардош, Урс Рехн, Моника Бальшаи
О фильме: 1913 год, Будапешт, сердце Европы. Молодая полная решимости Ирис Лейтер приезжает в столицу Венгрии. Она пытается устроиться на работу в качестве модистки в легендарный шляпный магазин, который когда-то принадлежал ее покойным родителям. Новый владелец выгоняет бывшую наследницу, ставшую жертвой жестоких интриг. Ирис отказывается покинуть город и начинает собственное расследование тайн прошлого на темных улицах Будапешта в канун Первой мировой войны.

Выпущено: Венгрия, Франция, Laokoon Filmgroup, Playtime, Hungarian National Film Fund
Продолжительность: 02:21:29
Перевод: Профессиональный (многоголосый, закадровый) | iTunes

Файл
Качество: WEB-DL 1080p
Контейнер: MKV
Видео: MPEG-4 AVC, 1920x1080, 5105 Кбит/с, 24.000 fps
Аудио: Russian: 48 kHz, AC3, 5.1 ch, 384 Kbps - iTunes
Субтитры: Нет

Релиз:


[+] MediaInfo
General
Unique ID                                : 197296370609385575043355678153068734193 (0x946DE6184078B9DB987168B5003366F1)
Complete name                            : Закат_2018-WEB-DL 1080p_KORSAR.mkv
Format                                   : Matroska
Format version                           : Version 2
File size                                : 5.53 GiB
Duration                                 : 2 h 21 min
Overall bit rate                         : 5 601 kb/s
Encoded date                             : UTC 2019-05-06 08:58:03
Writing application                      : mkvmerge v7.8.0 ('River Man') 32bit built on Mar 27 2015 16:18:02
Writing library                          : libebml v1.3.1 + libmatroska v1.4.2

Video
ID                                       : 1
Format                                   : AVC
Format/Info                              : Advanced Video Codec
Format profile                           : High@L4
Format settings, CABAC                   : Yes
Format settings, RefFrames               : 4 frames
Format settings, GOP                     : N=1
Codec ID                                 : V_MPEG4/ISO/AVC
Duration                                 : 2 h 21 min
Bit rate                                 : 5 105 kb/s
Width                                    : 1 920 pixels
Height                                   : 1 080 pixels
Display aspect ratio                     : 16:9
Frame rate mode                          : Constant
Frame rate                               : 24.000 FPS
Color space                              : YUV
Chroma subsampling                       : 4:2:0
Bit depth                                : 8 bits
Scan type                                : Progressive
Bits/(Pixel*Frame)                       : 0.103
Stream size                              : 5.05 GiB (91%)
Title                                    : Закат / Napszállta 2018
Language                                 : Hungarian
Default                                  : Yes
Forced                                   : No
Color range                              : Limited
Color primaries                          : BT.709
Transfer characteristics                 : BT.709
Matrix coefficients                      : BT.709

Audio
ID                                       : 2
Format                                   : AC-3
Format/Info                              : Audio Coding 3
Format settings, Endianness              : Big
Codec ID                                 : A_AC3
Duration                                 : 2 h 21 min
Bit rate mode                            : Constant
Bit rate                                 : 384 kb/s
Channel(s)                               : 6 channels
Channel positions                        : Front: L C R, Side: L R, LFE
Sampling rate                            : 48.0 kHz
Frame rate                               : 31.250 FPS (1536 SPF)
Bit depth                                : 16 bits
Compression mode                         : Lossy
Stream size                              : 389 MiB (7%)
Title                                    : MVO, iTunes
Language                                 : Russian
Service kind                             : Complete Main
Default                                  : Yes
Forced                                   : No



Скриншоты:
[+] Всего файлов в раздаче - 1:
Закат_2018-WEB-DL 1080p_KORSAR.mkv5.53 GB

Показать еще раздачи по запросу закат:
2019-05-08 U Закат / Napszállta (2018) WEB-DLRip от MegaPeer | iTunes 1.46 GB ↑ 75 ↓ 27
2019-05-07 U Закат / Napszállta (2018) WEB-DLRip от ExKinoRay | iTunes 2.06 GB ↑ 54 ↓ 23
2018-08-27 U Закат цивилизации / Extinction (2018) WEBRip 1080p от Ash61 | P, L 8.78 GB ↑ 68 ↓ 35
2018-08-12 U Закат цивилизации / Extinction (2018) WEB-DLRip-AVC от ExKinoRay | HDRezka Studio 744.23 MB ↑ 62 ↓ 28
2018-08-11 U Закат цивилизации / Extinction (2018) WEB-DLRip от MegaPeer | HDrezka Studio 745.45 MB ↑ 30 ↓ 18
2018-08-09 U Закат цивилизации / Extinction (2018) WEB-DLRip от Generalfilm | КПК | P 362.36 MB ↑ 50 ↓ 255
2018-08-08 U Закат цивилизации / Extinction (2018) WEB-DLRip-AVC от OlLanDGroup | P, L | HDrezka Studio 1.76 GB ↑ 166 ↓ 63

Отзывы
Зарегистрируйтесь чтобы добавить комментарий.
Обратная связь
Copyleft ©