↑↓Torrent.by
Поиск
Логин: Регистрация
Пароль: Восстановить пароль
Загрузка...

Ничего себе каникулы! / Premières vacances (2018) WEBRip 720p | P

Скачать nichego-sebe-kanikuly-premi-res-vacances-2018-webrip-720p-p.torrent
U Магнитная ссылка Размер: 1.96 GB Раздают: 55 Качают: 30 Добавлен: 2019-05-09 07:54:11
Ничего себе каникулы! / Premières vacances (2018) WEBRip 720p | P

Название: Ничего себе каникулы!
Оригинальное название: Premières vacances
Год выхода: 2018
Жанр: Комедия
Режиссер: Патрик Кассир
В ролях: Джонатан Коэн, Камиль Шаму, Камилль Коттен, Жереми Элькайм, Венсан Дедьен, Доминик Валадье, Svetlana Gergova, Бар Леви, Саги Альперин, Александр Алексеев (XIII)

О фильме:
Марион — развязная и свободная, ей за тридцать, она самодостаточна и не слишком разборчива в связях. Знакомиться с парнями в Tinder для нее привычное дело. Бен — серьезный мужчина, слово «рутина» ему хорошо знакомо, и он не слишком опытен в плане знакомств по интернету. Возраст, город Париж и приложение Tinder в телефонах — больше ничего общего между ними нет. Но происходит Match, и эти двое влюбляются друг в друга на первом же свидании. Обезумев от спонтанной радости, они тут же решают отправиться в совместный отпуск. В Болгарию. Дикарями. Как скоро они обнаружат, что их представления об идеальных каникулах, мягко говоря, не совпадают?

Страна: Франция
Студия: Canal+ [fr], The Film, Le Pacte, NJJ Entertainment
Продолжительность: 01:37:30
Перевод: Профессиональный многоголосый | Студия "Мельница"

Файл
Кодек: AVC
Качество: WEBRip 720p
Видео: MPEG-4 AVC, 2298 Kбит/с, 1280x536, 25.000 кадр/с
Звук: Без Рекламы!
Аудио #1: Русский (АС3, 2ch, 192 Кбит/с, 48.0 KHz) Профессиональный (многоголосый, закадровый) Студия "Мельница"
Аудио #2: Французский (АС3, 6ch, 384 Кбит/с, 48.0 KHz)
Субтитры: нет
Трейлер




[+] MediaInfo
Источник: Premieres.Vacances.2018.FRENCH.720p.WEBRip.H264-PREUMS
General
Unique ID                      : 185705393858927106219979862904486757242 (0x8BB58ED1A9E4966A8CA02E0EEE50037A)
Complete name                  : Premieres.Vacances.2018.WEBRip.720p.mkv
Format                         : Matroska
Format version                 : Version 4 / Version 2
File size                      : 1.96 GiB
Duration                       : 1 h 37 min
Overall bit rate               : 2 875 kb/s
Encoded date                   : UTC 2019-05-08 16:43:53
Writing application            : mkvmerge v7.1.0 ('Good Love') 64bit built on Jul 27 2014 13:06:55
Writing library                : libebml v1.3.0 + libmatroska v1.4.1

Video
ID                             : 1
Format                         : AVC
Format/Info                    : Advanced Video Codec
Format profile                 : High@L4.1
Format settings, CABAC         : Yes
Format settings, RefFrames     : 3 frames
Codec ID                       : V_MPEG4/ISO/AVC
Duration                       : 1 h 37 min
Bit rate                       : 2 298 kb/s
Width                          : 1 280 pixels
Height                         : 536 pixels
Display aspect ratio           : 2.40:1
Frame rate mode                : Constant
Frame rate                     : 25.000 FPS
Color space                    : YUV
Chroma subsampling             : 4:2:0
Bit depth                      : 8 bits
Scan type                      : Progressive
Bits/(Pixel*Frame)             : 0.134
Stream size                    : 1.56 GiB (80%)
Writing library                : x264 core 148
Encoding settings              : cabac=1 / ref=3 / deblock=1:-1:-1 / analyse=0x3:0 / me=hex / subme=5 / psy=1 / psy_rd=1.00:0.00 / mixed_ref=0 / me_range=16 / chroma_me=1 / trellis=1 / 8x8dct=1 / cqm=0 / deadzone=21,11 / fast_pskip=0 / chroma_qp_offset=0 / threads=16 / lookahead_threads=4 / sliced_threads=0 / nr=0 / decimate=1 / interlaced=0 / bluray_compat=0 / constrained_intra=0 / bframes=2 / b_pyramid=0 / b_adapt=1 / b_bias=0 / direct=1 / weightb=0 / open_gop=0 / weightp=0 / keyint=24 / keyint_min=2 / scenecut=40 / intra_refresh=0 / rc=crf / mbtree=0 / crf=21.0 / qcomp=0.60 / qpmin=0 / qpmax=69 / qpstep=4 / ip_ratio=1.40 / pb_ratio=1.30 / aq=1:1.00
Language                       : French
Default                        : Yes
Forced                         : No
Color range                    : Limited
Color primaries                : BT.709
Transfer characteristics       : BT.709
Matrix coefficients            : BT.709

Audio #1
ID                             : 2
Format                         : AC-3
Format/Info                    : Audio Coding 3
Format settings, Endianness    : Big
Codec ID                       : A_AC3
Duration                       : 1 h 37 min
Bit rate mode                  : Constant
Bit rate                       : 192 kb/s
Channel(s)                     : 2 channels
Channel positions              : Front: L R
Sampling rate                  : 48.0 kHz
Frame rate                     : 31.250 FPS (1536 SPF)
Bit depth                      : 16 bits
Compression mode               : Lossy
Stream size                    : 134 MiB (7%)
Title                          : MVO | Студия "Мельница"
Language                       : Russian
Service kind                   : Complete Main
Default                        : Yes
Forced                         : No

Audio #2
ID                             : 3
Format                         : AC-3
Format/Info                    : Audio Coding 3
Format settings, Endianness    : Big
Codec ID                       : A_AC3
Duration                       : 1 h 37 min
Bit rate mode                  : Constant
Bit rate                       : 384 kb/s
Channel(s)                     : 6 channels
Channel positions              : Front: L C R, Side: L R, LFE
Sampling rate                  : 48.0 kHz
Frame rate                     : 31.250 FPS (1536 SPF)
Bit depth                      : 16 bits
Compression mode               : Lossy
Stream size                    : 268 MiB (13%)
Language                       : French
Service kind                   : Complete Main
Default                        : No
Forced                         : No

Menu
00:00:00.000                   : en:Chapitre 01
00:09:00.000                   : en:Chapitre 02
00:18:00.000                   : en:Chapitre 03
00:27:00.000                   : en:Chapitre 04
00:36:00.000                   : en:Chapitre 05
00:45:00.000                   : en:Chapitre 06
00:54:00.000                   : en:Chapitre 07
01:03:00.000                   : en:Chapitre 08
01:12:00.000                   : en:Chapitre 09
01:21:00.000                   : en:Chapitre 10



Скриншоты:
[+] Всего файлов в раздаче - 1:
Premieres.Vacances.2018.WEBRip.720p.mkv1.96 GB

Показать еще раздачи по запросу ничего:
2019-05-13 U 100 вещей и ничего лишнего / 100 Dinge (2018) WEB-DLRip от Scarabey | iTunes 1.45 GB ↑ 31 ↓ 10
2019-05-12 U 100 вещей и ничего лишнего / 100 Dinge (2018) WEB-DLRip от MegaPeer | iTunes 744.64 MB ↑ 100 ↓ 30
2019-05-12 U 100 вещей и ничего лишнего / 100 Dinge (2018) WEB-DLRip от Generalfilm | КПК | iTunes 419.82 MB ↑ 36 ↓ 8
2019-05-11 U 100 вещей и ничего лишнего / 100 Dinge (2018) WEB-DL 1080p от селезень | iTunes 4.42 GB ↑ 517 ↓ 268
2019-05-11 U Ничего себе каникулы! / Premières vacances (2018) WEB-DLRip от MegaPeer | iTunes 1.46 GB ↑ 193 ↓ 44
2019-05-09 U 100 вещей и ничего лишнего / 100 Dinge (2018) WEB-DLRip от MegaPeer | iTunes 1К1.46 GB ↑ 753 ↓ 293
2019-05-09 U Ничего себе каникулы! / Premières vacances (2018) WEB-DL 1080p | P 3.48 GB ↑ 172 ↓ 49

Отзывы
Зарегистрируйтесь чтобы добавить комментарий.
Обратная связь
Copyleft ©