↑↓Torrent.by
Поиск
Логин: Регистрация
Пароль: Восстановить пароль
Загрузка...

Парад Победы. Москва. Красная площадь (2019) HDTV 1080i от GeneralFilm

Скачать parad-pobedy-moskva-krasnaya-ploschad-2019-hdtv-1080i-ot-generalfilm.torrent
U Магнитная ссылка Размер: 5.23 GB Раздают: 99 Качают: 90 Добавлен: 2019-05-09 12:31:46
Парад Победы. Москва. Красная площадь (2019) HDTV 1080i от GeneralFilm

Год выпуска: 2019
Жанр:  Документальный, военный парад
Выпущено: Россия, 1 (HD)

О фильме: В главном параде страны, посвящённом 74-й годовщине победы в Великой Отечественной войне, принимают участие тысячи военнослужащих и курсантов военных училищ, более 150 единиц военной техники. Министр обороны Сергей Шойгу и главком Сухопутных войск Олег Салюков впервые объезжали строй на кабриолетах Aurus — новинка этого парада. До этого принимающий парад министр и командующий смотром проезжали по Красной площади на лимузинах ЗИЛ. Президент Владимир Путин, премьер-министр РФ Дмитрий Медведев, ветераны, представители общественных организаций и иностранные гости наблюдали за парадом с центральной трибуны

Качество: HDTV (1080i)
Видео: AVC, 9904 Кбит/с, 1920x1080, 25 кадр/сек
Аудио: Русский (AC3, 2 ch, 384 Кбит/с, MP2, 2 ch, 192 Кбит/с)
Продолжительность: 01:07:53
Перевод: Не требуется
Субтитры: нет

Релиз:
[+] MediaInfo

Общее
Идентификатор                            : 1 (0x1)
Полное имя                               : D:ЗаписьParad Pobedy. Moskva. Krasnaja ploshhad.(2019).HDTV(1080i).GeneralFilm.ts
Формат                                   : MPEG-TS
Размер файла                             : 5,23 Гбайт
Продолжительность                        : 1 ч. 7 м.
Режим общего битрейта                    : Переменный
Общий поток                              : 11,0 Мбит/сек

Видео
Идентификатор                            : 1904 (0x770)
Идентификатор меню                       : 80 (0x50)
Формат                                   : AVC
Формат/Информация                        : Advanced Video Codec
Профиль формата                          : High@L4
Параметр CABAC формата                   : Да
Параметр ReFrames формата                : 3 кадра
Идентификатор кодека                     : 27
Продолжительность                        : 1 ч. 7 м.
Битрейт                                  : 9904 Кбит/сек
Ширина                                   : 1920 пикселей
Высота                                   : 1080 пикселей
Соотношение сторон                       : 16:9
Частота кадров                           : 25,000 кадров/сек
Стандарт вещания                         : Component
Цветовое пространство                    : YUV
Субдискретизация насыщенности            : 4:2:0
Битовая глубина                          : 8 бит
Тип развёртки                            : Чересстрочная
Метод сохранения типа развёртки          : Раздельные поля
Порядок развёртки                        : Верхнее поле первое
Бит/(Пиксели*Кадры)                      : 0.191
Размер потока                            : 4,70 Гбайт (90%)
Цветовой диапазон                        : Limited
Основные цвета                           : BT.709
Характеристики трансфера                 : BT.709
Коэффициенты матрицы                     : BT.709

Аудио #1
Идентификатор                            : 2904 (0xB58)
Идентификатор меню                       : 80 (0x50)
Формат                                   : AC-3
Формат/Информация                        : Audio Coding 3
Расширение режима                        : CM (complete main)
Параметр Endianness формата              : Big
Идентификатор кодека                     : 6
Продолжительность                        : 1 ч. 7 м.
Вид битрейта                             : Постоянный
Битрейт                                  : 384 Кбит/сек
Каналы                                   : 6 каналов
Расположение каналов                     : Front: L C R, Side: L R, LFE
Частота                                  : 48,0 КГц
Частота кадров                           : 31,250 кадров/сек (1536 spf)
Битовая глубина                          : 16 бит
Метод сжатия                             : С потерями
Размер потока                            : 186 Мбайт (3%)
Язык                                     : Russian

Аудио #2
Идентификатор                            : 2905 (0xB59)
Идентификатор меню                       : 80 (0x50)
Формат                                   : MPEG Audio
Версия формата                           : Version 1
Профиль формата                          : Layer 2
Идентификатор кодека                     : 3
Продолжительность                        : 1 ч. 7 м.
Вид битрейта                             : Постоянный
Битрейт                                  : 192 Кбит/сек
Каналы                                   : 2 канала
Частота                                  : 48,0 КГц
Метод сжатия                             : С потерями
Размер потока                            : 93,2 Мбайт (2%)
Язык                                     : Russian




Скриншоты:
[+] Всего файлов в раздаче - 1:
Parad Pobedy. Moskva. Krasnaja ploshhad.(2019).HDTV(1080i).GeneralFilm.ts5.23 GB

Показать еще раздачи по запросу парад:
2019-05-09 U Парад Победы. Москва. Красная площадь (2019) HDTVRip-AVC от GeneralFilm 1.04 GB ↑ 148 ↓ 28
2019-05-09 U Парад Победы. Москва. Красная площадь (2019) HDTVRip от GeneralFilm 971.51 MB ↑ 31 ↓ 32
2019-05-07 U Сборник - Шансон 2019 [Музыкальный хит-парад] (2019) MP3 449.57 MB ↑ 187 ↓ 31
2019-04-20 U VA - Shazam: Хит-парад Russia Top 100 [19.04] (2019) MP3 757.32 MB ↑ 221 ↓ 66
2019-03-06 U VA - Shazam: Хит-парад Russia Top 100 [05.03] (2019) MP3 800.91 MB ↑ 160 ↓ 44
2019-02-13 U VA - Shazam: Хит-парад Russia Top 100 [12.02] (2019) MP3 793.74 MB ↑ 216 ↓ 46
2019-01-01 U Новогодний парад звезд (2018) HDTVRip от Files-x 1.30 GB ↑ 89 ↓ 37

Отзывы
Зарегистрируйтесь чтобы добавить комментарий.
Обратная связь
Copyleft ©