↑↓Torrent.by
Поиск
Логин: Регистрация
Пароль: Восстановить пароль
Загрузка...

Парад Победы. Москва. Красная площадь (2019) HDTVRip от GeneralFilm

Скачать parad-pobedy-moskva-krasnaya-ploschad-2019-hdtvrip-ot-generalfilm.torrent
U Магнитная ссылка Размер: 971.51 MB Раздают: 20 Качают: 32 Добавлен: 2019-05-09 12:32:01
Парад Победы. Москва. Красная площадь (2019) HDTVRip от GeneralFilm

Год выпуска: 2019
Жанр:  Документальный, военный парад
Выпущено: Россия, 1 (HD)

О фильме: В главном параде страны, посвящённом 74-й годовщине победы в Великой Отечественной войне, принимают участие тысячи военнослужащих и курсантов военных училищ, более 150 единиц военной техники. Министр обороны Сергей Шойгу и главком Сухопутных войск Олег Салюков впервые объезжали строй на кабриолетах Aurus — новинка этого парада. До этого принимающий парад министр и командующий смотром проезжали по Красной площади на лимузинах ЗИЛ. Президент Владимир Путин, премьер-министр РФ Дмитрий Медведев, ветераны, представители общественных организаций и иностранные гости наблюдали за парадом с центральной трибуны.

Качество: HDTVRip
Видео: XviD, 1799 Кбит/с, 720х400, 25 кадр/с
Аудио: Русский (AC3, 2 ch, 192 Кбит/с)
Продолжительность:  01:07:53
Перевод: Не требуется
Субтитры: нет

Релиз:
[+] MediaInfo

Общее
Полное имя                               : D:Parad Pobedy. Moskva. Krasnaja ploshhad.(2019).HDTVRip.GeneralFilm.avi
Формат                                   : AVI
Формат/Информация                        : Audio Video Interleave
Размер файла                             : 972 Мбайт
Продолжительность                        : 1 ч. 7 м.
Общий поток                              : 2001 Кбит/сек
Программа кодирования                    : VirtualDubMod 1.5.10.3 | www.virtualdub-fr.org || (build 2550/release)
Библиотека кодирования                   : VirtualDubMod build 2550/release

Видео
Идентификатор                            : 0
Формат                                   : MPEG-4 Visual
Профиль формата                          : Advanced Simple@L5
Параметр BVOP формата                    : 1
Параметр QPel формата                    : Нет
Параметр GMC формата                     : Без точки перехода
Параметр матрицы формата                 : Выборочная
Идентификатор кодека                     : XVID
Идентификатор кодека/Подсказка           : XviD
Продолжительность                        : 1 ч. 7 м.
Битрейт                                  : 1799 Кбит/сек
Ширина                                   : 720 пикселей
Высота                                   : 400 пикселей
Соотношение сторон                       : 16:9
Частота кадров                           : 25,000 кадров/сек
Цветовое пространство                    : YUV
Субдискретизация насыщенности            : 4:2:0
Битовая глубина                          : 8 бит
Тип развёртки                            : Прогрессивная
Метод сжатия                             : С потерями
Бит/(Пиксели*Кадры)                      : 0.250
Размер потока                            : 874 Мбайт (90%)
Библиотека кодирования                   : XviD 1.2.1 (UTC 2008-12-04)

Аудио
Идентификатор                            : 1
Формат                                   : AC-3
Формат/Информация                        : Audio Coding 3
Расширение режима                        : CM (complete main)
Параметр Endianness формата              : Big
Идентификатор кодека                     : 2000
Продолжительность                        : 1 ч. 7 м.
Вид битрейта                             : Постоянный
Битрейт                                  : 192 Кбит/сек
Каналы                                   : 2 канала
Расположение каналов                     : Front: L R
Частота                                  : 48,0 КГц
Частота кадров                           : 31,250 кадров/сек (1536 spf)
Битовая глубина                          : 16 бит
Метод сжатия                             : С потерями
Размер потока                            : 93,2 Мбайт (10%)
Выравнивание                             : Разделение по промежуткам
Продолжительность промежутка             : 40  мс. (1,00 видеокадр)
Время предзагрузки промежутка            : 500  мс.




Скриншоты:
[+] Всего файлов в раздаче - 1:
Parad Pobedy. Moskva. Krasnaja ploshhad.(2019).HDTVRip.GeneralFilm.avi971.51 MB

Показать еще раздачи по запросу парад:
2019-05-09 U Парад Победы. Москва. Красная площадь (2019) HDTVRip-AVC от GeneralFilm 1.04 GB ↑ 148 ↓ 28
2019-05-09 U Парад Победы. Москва. Красная площадь (2019) HDTV 1080i от GeneralFilm 5.23 GB ↑ 99 ↓ 90
2019-05-07 U Сборник - Шансон 2019 [Музыкальный хит-парад] (2019) MP3 449.57 MB ↑ 59 ↓ 26
2019-04-20 U VA - Shazam: Хит-парад Russia Top 100 [19.04] (2019) MP3 757.32 MB ↑ 214 ↓ 65
2019-03-06 U VA - Shazam: Хит-парад Russia Top 100 [05.03] (2019) MP3 800.91 MB ↑ 159 ↓ 44
2019-02-13 U VA - Shazam: Хит-парад Russia Top 100 [12.02] (2019) MP3 793.74 MB ↑ 213 ↓ 45
2019-01-01 U Новогодний парад звезд (2018) HDTVRip от Files-x 1.30 GB ↑ 89 ↓ 37

Отзывы
Зарегистрируйтесь чтобы добавить комментарий.
Обратная связь
Copyleft ©