↑↓Torrent.by
Поиск
Логин: Регистрация
Пароль: Восстановить пароль
Загрузка...

Ни шагу Назад! [01-06 из 06] (2019) WEB-DLRip от GeneralFilm

Скачать ni-shagu-nazad-01-06-iz-2019-web-dlrip-ot-generalfilm.torrent
U Магнитная ссылка Размер: 3.27 GB Раздают: 287 Качают: 319 Добавлен: 2019-05-10 07:52:19
Ни шагу Назад! [01-06 из 06] (2019) WEB-DLRip от GeneralFilm

Оригинальное название: Ни шагу Назад!
Год выпуска: 2019
Жанр:  Военный, драма
Выпущено: Украина, ООО «Умора Продакшн»
Режиссер: Дмитрий Сорокин, Георгий Фероренко
В ролях: Валентина Попова (VII), Гела Месхи, Мария Шукшина, Фёдор Гуринец, Анастасия Зюркалова, Шорена Шония, Тамара Миронова, Себастьян Антон, Алена Медведева (II), Марина Поддубная, Светлана Косолапова, Инна Коляда, Дарья Рыбак, Елизавета Фалей, Анатолий Голуб, Дмитрий Пустильник, Сергей Бережко

О фильме: Главная героиня – Тошка Лыткина – наивная деревенская девочка, которая искренне любила всех без исключения людей. Во время вражеского авианалета у нее на глазах погибла вся деревня, в том числе – ее мать и младший брат. Девочка чудом выжила, но осталась круглой сиротой: ее отца убили на фронте в первые дни войны. После этой трагедии жизнерадостная простушка Тошка научилась ненавидеть. Она решила пойти на войну, чтобы убить Гитлера и отомстить за родных. Но суровый майор по фамилии Рай посчитал 16-летнюю девушку слишком юной, чтобы отправлять на фронт. И тогда Лыткина решила доказать, что ради своей цели способна совершить невозможное, например, спрыгнуть с самолета без парашюта! Семь раз она умирала – и стреляли в нее, и расстреливали, и ядом травили, – но живучая и везучая Тошка оставалась невредимой и продолжала совершать героические подвиги в тылу врага. Такие, что не каждому герою под силу. Отчаянно сражаясь с немцами, Тошка вела свою собственную войну. Войну со смертью! И в этой войне она научилась сильнее любить – жизнь и хороших людей. Именно на войне Тошка впервые полюбила по-настоящему...

Качество: WEB-DLRip
Видео: XviD build 73, 720x400 (16:9), 25.000 fps, ~ 1400 Kbps (~ 0.190 bit/pixel)
Аудио: 48.0 kHz, AC3, 2/0 ch, 192 kbps
Продолжительность: 6 х ~ 00:48:00
Перевод: Не требуется [Русский]
Cубтитры: нет

Релиз:
[+] MediaInfo
General
Complete name: D:RazdachiNi.Shagu.Nazad.2019.WEB-DLRip.GeneralFilmNi.Shagu.Nazad.e01.avi
Format: AVI
Format/Info: Audio Video Interleave
File size: 557 MiB
Duration: 48 min 7 s
Overall bit rate: 1 619 kb/s
Writing application: VirtualDubMod 1.5.10.3 | www.virtualdub-fr.org || (build 2550/release)
Writing library: VirtualDubMod build 2550/release

Video
ID: 0
Format: MPEG-4 Visual
Format profile: Advanced Simple@L5
Format settings: BVOP1 / Custom Matrix
Format settings, BVOP: 1
Format settings, QPel: No
Format settings, GMC: No warppoints
Format settings, Matrix: Custom
Codec ID: XVID
Codec ID/Hint: XviD
Duration: 48 min 7 s
Bit rate: 1 417 kb/s
Width: 720 pixels
Height: 400 pixels
Display aspect ratio: 16:9
Frame rate: 25.000 FPS
Color space: YUV
Chroma subsampling: 4:2:0
Bit depth: 8 bits
Scan type: Progressive
Compression mode: Lossy
Bits/(Pixel*Frame): 0.197
Stream size: 488 MiB (88%)
Writing library: XviD 73

Audio
ID: 1
Format: AC-3
Format/Info: Audio Coding 3
Commercial name: Dolby Digital
Codec ID: 2000
Duration: 48 min 7 s
Bit rate mode: Constant
Bit rate: 192 kb/s
Channel(s): 2 channels
Channel layout: L R
Sampling rate: 48.0 kHz
Frame rate: 31.250 FPS (1536 SPF)
Bit depth: 16 bits
Compression mode: Lossy
Stream size: 66.1 MiB (12%)
Alignment: Split accross interleaves
Interleave, duration: 40 ms (1.00 video frame)
Interleave, preload duratio: 500 ms
Service kind: Complete Main



Скриншоты:
[+] Всего файлов в раздаче - 6:
Ni.Shagu.Nazad.e01.avi557.21 MB
Ni.Shagu.Nazad.e02.avi557.32 MB
Ni.Shagu.Nazad.e03.avi557.62 MB
Ni.Shagu.Nazad.e04.avi557.41 MB
Ni.Shagu.Nazad.e05.avi557.43 MB
Ni.Shagu.Nazad.e06.avi557.57 MB

Похожие раздачи по запросу - шагу:
2019-05-12 U Ни шагу Назад! [01-06 из 06] (2019) WEB-DLRip от Generalfilm | КПК 1.11 GB ↑ 72 ↓ 31
2019-05-10 U Ни шагу Назад! [01-06 из 06] (2019) WEB-DLRip-AVC от Files-x 3.75 GB ↑ 97 ↓ 53
2019-05-10 U Ни шагу Назад! [01-06 из 06] (2019) WEB-DLRip от Files-x 3.76 GB ↑ 172 ↓ 114
2019-05-09 U Ни шагу назад [01х01-06 из 06] (2019) SATRip-AVC 3.72 GB ↑ 26 ↓ 8
2017-05-21 U Ни шагу назад! (2007) DVDRip-AVC 2К2.18 GB ↑ 273 ↓ 55
2015-10-03 U Приказ 2. Ни шагу назад (2014) WEB-DLRip от Files-х 1К599.60 MB ↑ 1126 ↓ 11

Отзывы
Зарегистрируйтесь чтобы добавить комментарий.
Обратная связь
Copyleft ©