↑↓Torrent.by
Поиск
Логин: Регистрация
Пароль: Восстановить пароль
Загрузка...

Последний бой / Танк [01-04 из 04] (2018) WEBRip от GeneralFilm

Скачать posledniy-boy-tank-01-04-iz-2018-webrip-ot-generalfilm.torrent
U Магнитная ссылка Размер: 2.18 GB Раздают: 233 Качают: 194 Добавлен: 2019-05-10 07:52:23
Последний бой / Танк [01-04 из 04] (2018) WEBRip от GeneralFilm

Оригинальное название: Последний бой / Танк
Год выпуска: 2018
Жанр:  Военный, драма
Выпущено: Украина, «PRO-TV PRODUCTION»
Режиссер: Виталий Ващенко
В ролях: Михаил Хмуров, Игорь Петрусенко, Владимир Гориславец, Анастасия Иванова (II), Евгений Ламах, Борис Смолкин

О фильме: Июнь 1941 года, окрестности Бреста. На заводе изготовили новый экспериментальный танк в единственном экземпляре. По пути на полигон для испытаний экипаж узнает, что началась война. На мосту они видят грузовик и хотят попросить о помощи, но понимают, что перед ними немецкие солдаты. Отступать поздно. Вот-вот начнется кровопролитный бой, но враги еще не знают, что перед ними Т-34 — тот самый танк, впоследствии признанный лучшим танком Второй мировой войны.

Качество: WEBRip
Видео: XviD build 73, 720x400 (16:9), 25.000 fps, ~ 1300 Kbps (~ 0.180 bit/pixel)
Аудио: 48.0 kHz, AC3, 2/0 ch, 192 kbps
Продолжительность: 4 х ~ 00:52:00
Перевод: Не требуется [Русский]
Cубтитры: нет

Релиз:
[+] MediaInfo
General
Complete name               : D:RazdachiPoslednij.Boj.2019.WEBRip.GeneralFilmPoslednij.Boj.e01.avi
Format                      : AVI
Format/Info                 : Audio Video Interleave
File size                   : 558 MiB
Duration                    : 55 min 45 s
Overall bit rate            : 1 399 kb/s
Writing application         : VirtualDubMod 1.5.10.3 | www.virtualdub-fr.org || (build 2550/release)
Writing library             : VirtualDubMod build 2550/release

Video
ID                          : 0
Format                      : MPEG-4 Visual
Format profile              : Advanced Simple@L5
Format settings             : BVOP1 / Custom Matrix
Format settings, BVOP       : 1
Format settings, QPel       : No
Format settings, GMC        : No warppoints
Format settings, Matrix     : Custom
Codec ID                    : XVID
Codec ID/Hint               : XviD
Duration                    : 55 min 45 s
Bit rate                    : 1 197 kb/s
Width                       : 720 pixels
Height                      : 400 pixels
Display aspect ratio        : 16:9
Frame rate                  : 25.000 FPS
Color space                 : YUV
Chroma subsampling          : 4:2:0
Bit depth                   : 8 bits
Scan type                   : Progressive
Compression mode            : Lossy
Bits/(Pixel*Frame)          : 0.166
Stream size                 : 477 MiB (86%)
Writing library             : XviD 73

Audio
ID                          : 1
Format                      : AC-3
Format/Info                 : Audio Coding 3
Commercial name             : Dolby Digital
Codec ID                    : 2000
Duration                    : 55 min 45 s
Bit rate mode               : Constant
Bit rate                    : 192 kb/s
Channel(s)                  : 2 channels
Channel layout              : L R
Sampling rate               : 48.0 kHz
Frame rate                  : 31.250 FPS (1536 SPF)
Bit depth                   : 16 bits
Compression mode            : Lossy
Stream size                 : 76.6 MiB (14%)
Alignment                   : Split accross interleaves
Interleave, duration        : 40  ms (1.00 video frame)
Interleave, preload duratio : 500  ms
Service kind                : Complete Main



Скриншоты:
[+] Всего файлов в раздаче - 4:
Poslednij.Boj.e01.avi557.95 MB
Poslednij.Boj.e02.avi557.34 MB
Poslednij.Boj.e03.avi557.33 MB
Poslednij.Boj.e04.avi557.91 MB

Показать еще раздачи по запросу последний:
2019-05-18 U Последний герой. Актёры против экстрасенсов [эфир от 18.05] (2019) SATRip 722.44 MB ↑ 228 ↓ 32
2019-05-14 U Последний герой [07х01-11] (2019) WEBRip от Files-x 9.24 GB ↑ 27 ↓ 91
2019-05-13 U Последний герой [07х01-11] (2019) WEBRip 720p от Files-x 15.54 GB ↑ 23 ↓ 118
2019-05-11 U Последний бой / Танк [01-04 из 04] (2018) WEBRip от Generalfilm | КПК 824.02 MB ↑ 62 ↓ 17
2019-05-10 U Последний бой / Танк [01-04 из 04] (2018) WEBRip-AVC от Files-x 3.32 GB ↑ 62 ↓ 49
2019-05-10 U Последний бой / Танк [01-04 из 04] (2018) WEBRip от Files-x 2.73 GB ↑ 113 ↓ 83
2019-05-09 U Последний бой / Танк [01-04 из 04] (2018) WEBRip 1080p от ExKinoRay 9.31 GB ↑ 156 ↓ 170

Отзывы
Зарегистрируйтесь чтобы добавить комментарий.
Обратная связь
Copyleft ©