↑↓Torrent.by
Поиск
Логин: Регистрация
Пароль: Восстановить пароль
Загрузка...

Прыжок Богомола [01-02 из 02] (2019) HDTVRip от GeneralFilm

Скачать pryzhok-bogomola-01-02-iz-2019-hdtvrip-ot-generalfilm.torrent
U Магнитная ссылка Размер: 2.18 GB Раздают: 249 Качают: 178 Добавлен: 2019-05-10 07:52:28
Прыжок Богомола [01-02 из 02] (2019) HDTVRip от GeneralFilm

Оригинальное название: Прыжок Богомола
Год выпуска: 2019
Жанр:  Военный, шпионский, детектив
Выпущено: Россия, «ГРИФОН», «Калейдоскоп фильм»
Режиссер: Владимир Балкашинов
В ролях: Павел Чинарёв, Татьяна Лялина, Александра Никифорова, Яков Шамшин, Сергей Степанченко, Виктор Супрун, Анатолий Лобоцкий, Дмитрий Брауэр, Владимир Капустин, Иван Лапин, Сергей Сосновский, Евгений Шириков, Владимир Терещенко, Константин Новиков, Алексей Ошурков, Александр Катин, Дмитрий Родонов, Илья Семёнов, Виктор Немец, Роман Синицын, Игорь Поселенов, Вячеслав Морозов, Илья Беляев, Александр Никольский

О фильме: 1942 год. Управление особых отделов НКВД начинает операцию по выявлению агентов, заброшенных на советскую территорию из разведцентра абвера. По заданию командования офицер НКВД разведчик Константин Богомолов под маской уголовника проникает в разведцентр и становится там лучшим курсантом.Постоянные проверки и провокации зачастую ставят Богомолова на грань провала. И вот, когда успех уже близок, и личные дела шпионов уже почти в руках, гитлеровцы забрасывают Богомолова, уже как своего агента, на советскую территорию.Руководство НКДВ считает, что Богомолов перевербован, и арестовывает Богомолова и его командира – майора НКВД Маркелова. В последний момент Богомолов бежит. Теперь уже только он сам, в одиночку, без поддержки Большой Земли, должен выполнить задание и тем самым обелить себя и своего командира.

Качество: HDTVRip
Видео: XviD build 73, 720x304 (2.37:1), 25.000 fps, ~ 1550 Kbps (~ 0.280 bit/pixel)
Аудио: 48.0 kHz, AC3, 2/0 ch, 192 kbps
Продолжительность: 2 х ~ 01:30:00
Перевод: Не требуется [Русский]
Cубтитры: нет

Релиз:


[+] MediaInfo
General
Complete name: D:RazdachiPryzhok.Bogomola.2019.HDTVRip.GeneralFilmPryzhok.Bogomola.01.avi
Format: AVI
Format/Info: Audio Video Interleave
File size: 1.09 GiB
Duration: 1 h 28 min
Overall bit rate: 1 756 kb/s
Writing application: VirtualDubMod 1.5.10.3 | www.virtualdub-fr.org || (build 2550/release)
Writing library: VirtualDubMod build 2550/release

Video
ID: 0
Format: MPEG-4 Visual
Format profile: Advanced Simple@L5
Format settings: BVOP1 / Custom Matrix
Format settings, BVOP: 1
Format settings, QPel: No
Format settings, GMC: No warppoints
Format settings, Matrix: Custom
Codec ID: XVID
Codec ID/Hint: XviD
Duration: 1 h 28 min
Bit rate: 1 554 kb/s
Width: 720 pixels
Height: 304 pixels
Display aspect ratio: 2.35:1
Frame rate: 25.000 FPS
Color space: YUV
Chroma subsampling: 4:2:0
Bit depth: 8 bits
Scan type: Progressive
Compression mode: Lossy
Bits/(Pixel*Frame): 0.284
Stream size: 986 MiB (89%)
Writing library: XviD 73

Audio
ID: 1
Format: AC-3
Format/Info: Audio Coding 3
Commercial name: Dolby Digital
Codec ID: 2000
Duration: 1 h 28 min
Bit rate mode: Constant
Bit rate: 192 kb/s
Channel(s): 2 channels
Channel layout: L R
Sampling rate: 48.0 kHz
Frame rate: 31.250 FPS (1536 SPF)
Bit depth: 16 bits
Compression mode: Lossy
Stream size: 122 MiB (11%)
Alignment: Split accross interleaves
Interleave, duration: 40 ms (1.00 video frame)
Interleave, preload duratio: 500 ms
Service kind: Complete Main



[+] Скрытый текст
...first pass...

xvid_encraw.exe: -pass1 "E:XviD4PSP5134_1.log"

Tot: enctime(ms) =731098.00,               length(bytes) = 997900085
Avg: enctime(ms) =   5.41, fps = 184.93, length(bytes) =    7380
I frames:   1138 frames, size =   44901/51097833, quants =  2 / 2.00 /  2
P frames:  67514 frames, size =   12431/839291010, quants =  2 / 2.00 /  2
B frames:  66488 frames, size =    1616/107510746, quants =  4 / 4.00 /  4

Trying to retrieve width and height from input header
xvidcore build version: xvid-1.4.0-dev
Bitstream version: 1.4.-127
Detected CPU flags: ASM MMX MMXEXT SSE SSE2 SSE3 SSE41 TSC
Detected 8 cpus, using 4 threads.

...last pass...

xvid_encraw.exe: -pass2 "E:XviD4PSP5134_1.log"

Tot: enctime(ms) =1990456.00,               length(bytes) = 1031272958
Avg: enctime(ms) =  14.72, fps =  67.93, length(bytes) =    7627
I frames:   1138 frames, size =   54026/61482229, quants =  1 / 1.73 /  3
P frames:  67514 frames, size =   12654/854360192, quants =  1 / 2.18 /  4
B frames:  66473 frames, size =    1736/115429921, quants =  2 / 4.04 /  7

Trying to retrieve width and height from input header
xvidcore build version: xvid-1.4.0-dev
Bitstream version: 1.4.-127
Detected CPU flags: ASM MMX MMXEXT SSE SSE2 SSE3 SSE41 TSC
Detected 8 cpus, using 4 threads.

MUXING
------------------------------
Video file: E:XviD4PSP5134.avi
Audio file: E:XviD4PSP5134.ac3
Muxing to: D:RazdachiPryzhok.Bogomola.2019.HDTVRip.GeneralFilmPryzhok.Bogomola.02.avi

virtualdubmod.exe: /x /s"E:XviD4PSP5134.vcf"

TIME
------------------------------
Общее время кодирования: 46 min 23 sec
Файл получился на: 1113.54 mb



Скриншоты:
[+] Всего файлов в раздаче - 2:
Pryzhok.Bogomola.01.avi1.09 GB
Pryzhok.Bogomola.02.avi1.09 GB

Показать еще раздачи по запросу прыжок:
2019-05-13 U Прыжок Богомола [01-02 из 02] (2019) HDTVRip от Portablius 1.46 GB ↑ 60 ↓ 14
2019-05-11 U Прыжок Богомола [01-02 из 02] (2019) HDTVRip от Generalfilm | КПК 681.46 MB ↑ 75 ↓ 25
2019-05-11 U Прыжок Богомола [01-02 из 02] (2019) HDTV 1080i 9.56 GB ↑ 58 ↓ 37
2019-05-11 U Прыжок Богомола [01-02 из 02] (2019) HDTVRip-AVC 1.37 GB ↑ 59 ↓ 24
2019-05-10 U Прыжок Богомола [01-02 из 02] (2019) HDTVRip от Files-x 2.25 GB ↑ 152 ↓ 70
2019-05-10 U Прыжок Богомола [01-02 из 02] (2019) HDTVRip-AVC от Files-x 2.74 GB ↑ 208 ↓ 84
2019-05-10 U Прыжок Богомола [01-02 из 02] (2019) HDTVRip 720p от ExKinoRay 5.24 GB ↑ 206 ↓ 119

Отзывы
Зарегистрируйтесь чтобы добавить комментарий.
Обратная связь
Copyleft ©