↑↓Torrent.by
Поиск
Логин: Регистрация
Пароль: Восстановить пароль
Загрузка...

Омен: Перерождение / The Prodigy (2019) BDRip-AVC от ExKinoRay | iTunes

Скачать omen-pererozhdenie-the-prodigy-2019-bdrip-avc-ot-exkinoray-itunes.torrent
U Магнитная ссылка Размер: 746.50 MB Раздают: 31 Качают: 4 Добавлен: 2019-05-10 07:53:48
Омен: Перерождение / The Prodigy (2019) BDRip-AVC от ExKinoRay | iTunes

Название: Омен: Перерождение
Оригинальное название: The Prodigy
Год выхода: 2019
Жанр:  Ужасы, триллер
Режиссер: Николас МакКарти
В ролях: Тейлор Шиллинг, Джексон Роберт Скотт, Колм Фиор, Питер Муни, Пол Фото, Бриттани Аллен, Паула Бодро, Элиза Мулчерри, Олунике Аделийи, Джанет Лэнд, Мартин Роуч, Байрон Абалос, Эшли Блэк, Николас МакКарти

О фильме:
Что-то не так с Майлзом… Эта мысль не дает покоя главной героине – молодой матери, которую очень сильно беспокоит то, что происходит с ее восьмилетним сыном. Мальчик начал очень странно вести себя, и такое поведение кажется его матери подозрительным. Что-то дьявольское скрывается в его взгляде, в действиях и даже манере одеваться. Она почти уверена, что у такого поведения может быть только одна-единственная причина – мальчиком овладели неведомые сверхъестественные силы. В отчаянии она даже обращается за помощью к гипнотизеру, который может помочь ей узнать правду. Но удастся ли этот эксперимент и не слишком ли ужасным окажется то, что они выяснят. Может быть всего этого не стоило знать?

Страна: США, Гонконг
Студия: Orion Pictures, Vinson Films, XYZ Films
Продолжительность: 01:31:45
Перевод: Дублированный | iTunes

Файл
Формат: MKV
Качество: BDRip-AVC (BDRemux 1080p)
Видео: MPEG-4 AVC, 784x328, - 1060 Кбит/с
Аудио:  AAC-HE, 2 ch, - 76 Кбит/с
Субтитры: Нет


[+] MI
Общее
Уникальный идентификатор : 223749632015636309501948072780746167098 (0xA8549C9413589326C29B7005A76B933A)
Полное имя : D:MOVIESThe.Prodigy.2019.ExKinoRay.mkv
Формат : Matroska
Версия формата : Version 4 / Version 2
Размер файла : 747 Мбайт
Продолжительность : 1 ч. 31 м.
Общий поток : 1137 Кбит/сек
Дата кодирования : UTC 2019-05-09 05:50:19
Программа кодирования : mkvmerge v32.0.0 ('Astral Progressions') 64-bit
Библиотека кодирования : libebml v1.3.7 + libmatroska v1.5.0

Видео
Идентификатор : 1
Формат : AVC
Формат/Информация : Advanced Video Codec
Профиль формата : High@L4.1
Параметр CABAC формата : Да
Параметр RefFrames формата : 12 кадров
Идентификатор кодека : V_MPEG4/ISO/AVC
Продолжительность : 1 ч. 31 м.
Битрейт : 1060 Кбит/сек
Ширина : 784 пикселя
Высота : 328 пикселей
Соотношение сторон : 2,40:1
Режим частоты кадров : Постоянный
Частота кадров : 23,976 (24000/1001) кадра/сек
Цветовое пространство : YUV
Субдискретизация насыщенности : 4:2:0
Битовая глубина : 8 бит
Тип развёртки : Прогрессивная
Бит/(Пиксели*Кадры) : 0.172
Размер потока : 695 Мбайт (93%)
Библиотека кодирования : x264 core 152 r2851kMod ba24899
Настройки программы : cabac=1 / ref=12 / deblock=1:-2:-2 / analyse=0x3:0x133 / me=umh / subme=10 / psy=1 / fade_compensate=0.00 / psy_rd=1.00:0.10 / mixed_ref=1 / me_range=32 / chroma_me=1 / trellis=2 / 8x8dct=1 / cqm=0 / deadzone=21,11 / fast_pskip=0 / chroma_qp_offset=-3 / threads=6 / lookahead_threads=1 / sliced_threads=0 / nr=0 / decimate=0 / interlaced=0 / bluray_compat=0 / constrained_intra=0 / bframes=12 / b_pyramid=2 / b_adapt=2 / b_bias=0 / direct=3 / weightb=1 / open_gop=0 / weightp=2 / keyint=240 / keyint_min=23 / scenecut=40 / intra_refresh=0 / rc_lookahead=40 / rc=2pass / mbtree=1 / bitrate=1060 / ratetol=1.0 / qcomp=0.60 / qpmin=0 / qpmax=69 / qpstep=4 / cplxblur=20.0 / qblur=0.5 / ip_ratio=1.40 / aq=3:1.00
Default : Да
Forced : Нет

Аудио
Идентификатор : 2
Формат : AAC
Формат/Информация : Advanced Audio Codec
Профиль формата : HE-AAC / LC
Идентификатор кодека : A_AAC
Продолжительность : 1 ч. 31 м.
Битрейт : 76,0 Кбит/сек
Каналы : 2 канала
Расположение каналов : Front: L R
Частота : 48,0 КГц / 24,0 КГц
Частота кадров : 23,438 кадра/сек (1024 SPF)
Метод сжатия : С потерями
Задержка видео : 31 мс.
Размер потока : 49,9 Мбайт (7%)
Default : Да
Forced : Нет

Меню
00:00:00.000 : ru:Глава 01
00:04:05.704 : ru:Глава 02
00:09:53.384 : ru:Глава 03
00:12:55.441 : ru:Глава 04
00:18:32.528 : ru:Глава 05
00:24:20.626 : ru:Глава 06
00:28:53.774 : ru:Глава 07
00:33:59.913 : ru:Глава 08
00:38:33.937 : ru:Глава 09
00:42:10.027 : ru:Глава 10
00:46:54.895 : ru:Глава 11
00:50:15.429 : ru:Глава 12
00:56:20.919 : ru:Глава 13
01:01:39.279 : ru:Глава 14
01:05:14.911 : ru:Глава 15
01:09:53.523 : ru:Глава 16
01:13:42.501 : ru:Глава 17
01:21:23.670 : ru:Глава 18
01:25:20.907 : ru:Глава 19
01:26:46.368 : ru:Глава 20



Скриншоты:
[+] Всего файлов в раздаче - 1:
The.Prodigy.2019.ExKinoRay.mkv746.50 MB

Похожие раздачи по запросу - омен:
2019-05-09 U Омен: Перерождение / The Prodigy (2019) BDRip-AVC от ExKinoRay | iTunes 1.51 GB ↑ 49 ↓ 7
2019-05-08 U Омен: Перерождение / The Prodigy (2019) BDRip 1080p от селезень | iTunes 8.07 GB ↑ 135 ↓ 70
2019-05-08 U Омен: Перерождение / The Prodigy (2019) BDRip от MegaPeer | iTunes 1.42 GB ↑ 723 ↓ 33
2019-04-25 U Омен: Перерождение / The Prodigy (2019) WEB-DLRip от MegaPeer | iTunes 1.46 GB ↑ 581 ↓ 221
2013-10-20 U Омен / The Omen (2006) BDRip 720p | D, A 1К7.20 GB ↑ 11 ↓ 2

Отзывы
Зарегистрируйтесь чтобы добавить комментарий.
Обратная связь
Copyleft ©