↑↓Torrent.by
Поиск
Логин: Регистрация
Пароль: Восстановить пароль
Загрузка...

По законам военного времени [S03] (2019) WEBRip от GeneralFilm

Скачать po-zakonam-voennogo-vremeni-s03-2019-webrip-ot-generalfilm.torrent
U Магнитная ссылка Размер: 4.35 GB Раздают: 113 Качают: 139 Добавлен: 2019-05-10 15:06:59
По законам военного времени [S03] (2019) WEBRip от GeneralFilm

Оригинальное название: По законам военного времени
Год выпуска: 2019
Жанр:  Военный, драма, история, мелодрама, шпионский
Выпущено: Россия, «STAR MEDIA»
Режиссер: Евгений Серов
В ролях: Екатерина Климова, Евгений Воловенко, Александр Панкратов-Чёрный, Дмитрий Сутырин, Юрий Ваксман, Анна Глаубэ, Игорь Штернберг, Евгений Овчинников, Сергей Бачурский, Анатолий Гущин, Иван Шибанов, Максим Литовченко, Денис Константинов, Дмитрий Кравченко, Ксения Щербакова, Иван Шмаков

О фильме: 1944 год. Одесса, освобожденная от немецко-румынской оккупации, начинает жить мирной жизнью. Однако по сведениям военной разведки в городе продолжает действовать агентурная сеть Абвера, из числа завербованного местного населения и прибывших профессионально обученных диверсантов. В Москве формируется специальная оперативная группа из следователей СМЕРШа и военной прокуратуры, которая направляется в Одессу для усиления местных органов власти и милиции. В состав спецподразделения, руководимого капитаном СМЕРШа Виктором Звягиновым, входят следователи военной прокуратуры Светлана Елагина и Иван Рокотов, потерявшие друг друга во время отступления из Харькова в 1941 году и вновь встретившиеся после долгой разлуки...

Качество: WEBRip
Видео: XviD build 73, 720x400 (16:9), 25.000 fps, ~ 1300 Kbps (~ 0.180 bit/pixel)
Аудио: 48.0 kHz, AC3, 2/0 ch, 192 kbps
Продолжительность: 8 х ~ 00:52:00
Перевод: Не требуется [Русский]
Cубтитры: нет

Релиз:


[+] MediaInfo
General
Complete name               : D:RazdachiPo.Zakonam.Voennogo.Vremeni.s03.2019.WEBRip.GeneralFilms03.Serija.01.avi
Format                      : AVI
Format/Info                 : Audio Video Interleave
File size                   : 557 MiB
Duration                    : 52 min 6 s
Overall bit rate            : 1 495 kb/s
Writing application         : VirtualDubMod 1.5.10.3 | www.virtualdub-fr.org || (build 2550/release)
Writing library             : VirtualDubMod build 2550/release

Video
ID                          : 0
Format                      : MPEG-4 Visual
Format profile              : Advanced Simple@L5
Format settings             : BVOP1 / Custom Matrix
Format settings, BVOP       : 1
Format settings, QPel       : No
Format settings, GMC        : No warppoints
Format settings, Matrix     : Custom
Codec ID                    : XVID
Codec ID/Hint               : XviD
Duration                    : 52 min 6 s
Bit rate                    : 1 294 kb/s
Width                       : 720 pixels
Height                      : 400 pixels
Display aspect ratio        : 16:9
Frame rate                  : 25.000 FPS
Color space                 : YUV
Chroma subsampling          : 4:2:0
Bit depth                   : 8 bits
Scan type                   : Progressive
Compression mode            : Lossy
Bits/(Pixel*Frame)          : 0.180
Stream size                 : 482 MiB (87%)
Writing library             : XviD 73

Audio
ID                          : 1
Format                      : AC-3
Format/Info                 : Audio Coding 3
Commercial name             : Dolby Digital
Codec ID                    : 2000
Duration                    : 52 min 6 s
Bit rate mode               : Constant
Bit rate                    : 192 kb/s
Channel(s)                  : 2 channels
Channel layout              : L R
Sampling rate               : 48.0 kHz
Frame rate                  : 31.250 FPS (1536 SPF)
Bit depth                   : 16 bits
Compression mode            : Lossy
Stream size                 : 71.6 MiB (13%)
Alignment                   : Split accross interleaves
Interleave, duration        : 40  ms (1.00 video frame)
Interleave, preload duratio : 500  ms
Service kind                : Complete Main



Скриншоты:
[+] Всего файлов в раздаче - 8:
s03.Serija.01.avi557.31 MB
s03.Serija.02.avi557.51 MB
s03.Serija.03.avi557.21 MB
s03.Serija.04.avi557.47 MB
s03.Serija.05.avi557.41 MB
s03.Serija.06.avi557.52 MB
s03.Serija.07.avi557.12 MB
s03.Serija.08.avi557.22 MB

Показать еще раздачи по запросу законам:
2019-05-11 U По законам военного времени [S03] (2019) HDTVRip от Generalfilm | КПК 1.51 GB ↑ 45 ↓ 24
2019-05-09 U По законам военного времени [S03] (2019) HDTVRip-AVC от Files-x 6.24 GB ↑ 152 ↓ 270
2019-05-09 U По законам военного времени [S03] (2019) HDTV 1080i от GeneralFilm 18.28 GB ↑ 138 ↓ 194
2019-05-09 U По законам военного времени [S03] (2019) HDTVRip 720p от GeneralFilm 10.51 GB ↑ 149 ↓ 173
2019-05-09 U По законам военного времени [S03] (2019) HDTVRip от GeneralFilm 5.65 GB ↑ 484 ↓ 674
2019-05-08 U По законам военного времени [03х01-08 из 08] (2019) SATRip-AVC 5.11 GB ↑ 11 ↓ 24
2019-05-08 U По законам военного времени [03х01-06 из 08] (2019) HDTVRip 720p от GeneralFilm 7.93 GB ↑ 69 ↓ 79

Отзывы
Зарегистрируйтесь чтобы добавить комментарий.
Обратная связь
Copyleft ©