↑↓Torrent.by
Поиск
Логин: Регистрация
Пароль: Восстановить пароль
Загрузка...

Железное небо 2: Грядущая раса / Iron Sky: The Coming Race (2019) BDRip 1080p | L2, A

Скачать zheleznoe-nebo-2-gryaduschaya-rasa-iron-sky-the-coming-race-2019-bdrip-1080p-l2-a.torrent
U Магнитная ссылка Размер: 7.96 GB Раздают: 171 Качают: 54 Добавлен: 2019-05-11 06:40:55
Железное небо 2: Грядущая раса / Iron Sky: The Coming Race (2019) BDRip 1080p | L2, A

Название: Железное небо 2: Грядущая раса
Оригинальное название: Iron Sky: The Coming Race
Год выхода: 2019
Жанр: Фантастика, боевик, комедия, приключения
Режиссер: Тимо Вуоренсола
В ролях: Лара Росси, Владимир Бурлаков, Кит Дэйл, Том Грин, Юлия Дитце, Эдвард Джадж, Мартин Сваби, Эмили Атак, Удо Кир, Джон Фландерс

О фильме:
Спустя 20 лет после событий первого фильма остатки человечества вынуждены переселиться на ту самую базу, основанную в 1945 году сбежавшими нацистами на тёмной стороне Луны — жизнь на планете Земля погибла после разрушительной ядерной войны. Но в пустыне, лежащей посреди ядерной зимы, имеется секрет, касающийся появления человеческой расы, и этот секрет способен возродить былое величие людей или навеки похоронить их надежды на возвращение домой. Отряд людей во главе с отважной Оби Вашингтон отправится на Землю, чтобы бросить вызов армии рептилий Врила — древней космической расы, которая захватила половину галактики и Землю в том числе.

Страна: Финляндия, Германия, Бельгия
Студия: Iron Sky Universe, 27 Films Production, Potemkino
Продолжительность: 01:32:45
Перевод: Любительский двухголосый @MUZOBOZ@, Авторский (BadBajo)
Полная синхронизация русской дорожки @MUZOBOZ@
Дорожка МУЗОБОЗ 5.1 получена путем наложения на центральный канал ориг. дорожки русских фраз, выделенных из дорожки с рекламой.
Без Рекламы!
Работа по выделению и наложению - kosmoaelita

Файл
Кодек: x.264
Качество: BDRip 1080p
Видео: MPEG-4 AVC, 8612 Кбит/с, 1920х808, 23.976 кадр/с
Аудио #1: Русский (DTS, 6ch, 1509 Кбит/с, 48.0 KHz) Любительский (двухголосый, закадровый) @MUZOBOZ@
Аудио #1: Русский (АС3, 6ch, 640 Кбит/с, 48.0 KHz) Авторский (одноголосый, закадровый) А.Важенин (BadBajo)
Аудио #2: Английский (DTS, 6ch, 1509 Кбит/с, 48.0 KHz)
Субтитры: Английские
Трейлер




[+] MediaInfo
Источник: Iron.Sky.The.Coming.Race.2019.LiMiTED.1080p.BluRay.x264-CADAVER
General
Unique ID                      : 170580607023199887784095772922888650436 (0x8054A1411C8DC7218E53B3A50580FEC4)
Complete name                  : Iron Sky The Coming Race 2019.x264.BDRip.1080p.2xRus.kosmoaelita.mkv
Format                         : Matroska
Format version                 : Version 4 / Version 2
File size                      : 7.96 GiB
Duration                       : 1 h 32 min
Overall bit rate               : 12.3 Mb/s
Movie name                     : Iron Sky The Coming Race / 2019 / kosmoaelita
Encoded date                   : UTC 2019-05-10 05:37:57
Writing application            : mkvmerge v6.6.0 ('The Edge Of The In Between') built on Dec  1 2013 17:55:00
Writing library                : libebml v1.3.0 + libmatroska v1.4.1
Attachments                    : poster.jpg

Video
ID                             : 1
Format                         : AVC
Format/Info                    : Advanced Video Codec
Format profile                 : High@L4.1
Format settings, CABAC         : Yes
Format settings, RefFrames     : 5 frames
Codec ID                       : V_MPEG4/ISO/AVC
Duration                       : 1 h 32 min
Bit rate                       : 8 612 kb/s
Width                          : 1 920 pixels
Height                         : 808 pixels
Display aspect ratio           : 2.40:1
Frame rate mode                : Constant
Frame rate                     : 23.976 (24000/1001) FPS
Color space                    : YUV
Chroma subsampling             : 4:2:0
Bit depth                      : 8 bits
Scan type                      : Progressive
Bits/(Pixel*Frame)             : 0.232
Stream size                    : 5.43 GiB (68%)
Title                          : http://kosmoaelita.com/viewtopic.php?t=2720
Writing library                : x264 core 157 r2969 d4099dd
Encoding settings              : cabac=1 / ref=5 / deblock=1:-3:-3 / analyse=0x3:0x133 / me=umh / subme=9 / psy=1 / psy_rd=1.00:0.00 / mixed_ref=1 / me_range=24 / chroma_me=1 / trellis=1 / 8x8dct=1 / cqm=0 / deadzone=21,11 / fast_pskip=0 / chroma_qp_offset=-2 / threads=24 / lookahead_threads=4 / sliced_threads=0 / nr=0 / decimate=1 / interlaced=0 / bluray_compat=0 / constrained_intra=0 / bframes=8 / b_pyramid=2 / b_adapt=2 / b_bias=0 / direct=3 / weightb=1 / open_gop=0 / weightp=2 / keyint=250 / keyint_min=23 / scenecut=40 / intra_refresh=0 / rc_lookahead=60 / rc=2pass / mbtree=1 / bitrate=8612 / ratetol=1.0 / qcomp=0.60 / qpmin=0 / qpmax=69 / qpstep=4 / cplxblur=20.0 / qblur=0.5 / vbv_maxrate=62500 / vbv_bufsize=78125 / nal_hrd=none / filler=0 / ip_ratio=1.40 / aq=1:1.00
Default                        : Yes
Forced                         : No

Audio #1
ID                             : 2
Format                         : DTS
Format/Info                    : Digital Theater Systems
Mode                           : 16
Format settings, Endianness    : Big
Codec ID                       : A_DTS
Duration                       : 1 h 32 min
Bit rate mode                  : Constant
Bit rate                       : 1 510 kb/s
Channel(s)                     : 6 channels
Channel positions              : Front: L C R, Side: L R, LFE
Sampling rate                  : 48.0 kHz
Frame rate                     : 93.750 FPS (512 SPF)
Bit depth                      : 16 bits
Compression mode               : Lossy
Stream size                    : 1 002 MiB (12%)
Title                          : Русскмй ЛМ (@MUZOBOZ@) - выделение из центр. канала
Language                       : Russian
Default                        : Yes
Forced                         : No

Audio #2
ID                             : 3
Format                         : AC-3
Format/Info                    : Audio Coding 3
Format settings, Endianness    : Big
Codec ID                       : A_AC3
Duration                       : 1 h 32 min
Bit rate mode                  : Constant
Bit rate                       : 640 kb/s
Channel(s)                     : 6 channels
Channel positions              : Front: L C R, Side: L R, LFE
Sampling rate                  : 48.0 kHz
Frame rate                     : 31.250 FPS (1536 SPF)
Bit depth                      : 16 bits
Compression mode               : Lossy
Stream size                    : 425 MiB (5%)
Title                          : Русский АО (Важенин aka BadBajo) - выделение из центр. канала
Language                       : Russian
Service kind                   : Complete Main
Default                        : No
Forced                         : No

Audio #3
ID                             : 4
Format                         : DTS
Format/Info                    : Digital Theater Systems
Mode                           : 16
Format settings, Endianness    : Big
Codec ID                       : A_DTS
Duration                       : 1 h 32 min
Bit rate mode                  : Constant
Bit rate                       : 1 509 kb/s
Channel(s)                     : 6 channels
Channel positions              : Front: L C R, Side: L R, LFE
Sampling rate                  : 48.0 kHz
Frame rate                     : 93.750 FPS (512 SPF)
Bit depth                      : 24 bits
Compression mode               : Lossy
Stream size                    : 1 001 MiB (12%)
Language                       : English
Default                        : No
Forced                         : No

Text #1
ID                             : 5
Format                         : UTF-8
Codec ID                       : S_TEXT/UTF8
Codec ID/Info                  : UTF-8 Plain Text
Title                          : форс
Default                        : Yes
Forced                         : No

Text #2
ID                             : 6
Format                         : PGS
Muxing mode                    : zlib
Codec ID                       : S_HDMV/PGS
Codec ID/Info                  : Picture based subtitle format used on BDs/HD-DVDs
Language                       : English
Default                        : No
Forced                         : No

Text #3
ID                             : 7
Format                         : UTF-8
Codec ID                       : S_TEXT/UTF8
Codec ID/Info                  : UTF-8 Plain Text
Language                       : English
Default                        : No
Forced                         : No

Text #4
ID                             : 8
Format                         : UTF-8
Codec ID                       : S_TEXT/UTF8
Codec ID/Info                  : UTF-8 Plain Text
Title                          : SDH
Language                       : English
Default                        : No
Forced                         : No

Menu
00:00:00.000                   : en:Chapter 01
00:11:33.151                   : en:Chapter 02
00:24:00.564                   : en:Chapter 03
00:35:38.136                   : en:Chapter 04
00:49:49.987                   : en:Chapter 05
01:04:29.991                   : en:Chapter 06
01:17:18.717                   : en:Chapter 07
01:24:35.279                   : en:Chapter 08



Скриншоты:
[+] Всего файлов в раздаче - 1:
Iron Sky The Coming Race 2019.x264.BDRip.1080p.2xRus.kosmoaelita.mkv7.96 GB

Показать еще раздачи по запросу железное:
2019-07-13 U Железное небо 2: Грядущая раса / Iron Sky: The Coming Race (2019) BDRip 720p от k.e.n & MegaPeer | P, A 4.08 GB ↑ 65 ↓ 14
2019-07-06 U Железное небо 2: Грядущая раса / Iron Sky: The Coming Race (2019) BDRip-AVC | P, A 3.01 GB ↑ 51 ↓ 22
2019-07-05 U Железное небо 2: Грядущая раса / Iron Sky: The Coming Race (2019) BDRip-HEVC 1080p | P, A 6.74 GB ↑ 52 ↓ 36
2019-07-05 U Железное небо 2: Грядущая раса / Iron Sky: The Coming Race (2019) BDRip | HDRezka Studio 1.46 GB ↑ 130 ↓ 44
2019-07-04 U Железное небо 2: Грядущая раса / Iron Sky: The Coming Race (2019) BDRip-AVC | P, A 2.84 GB ↑ 80 ↓ 23
2019-05-19 U Железное небо 2: Грядущая раса / Iron Sky: The Coming Race (2019) BDRip-AVC | P, A 2.84 GB ↑ 222 ↓ 86
2019-05-11 U Железное небо 2: Грядущая раса / Iron Sky: The Coming Race (2019) BDRip-AVC от ExKinoRay | BadBajo 1.98 GB ↑ 78 ↓ 29

Отзывы
Зарегистрируйтесь чтобы добавить комментарий.
Обратная связь
Copyleft ©