↑↓Torrent.by
Поиск
Логин: Регистрация
Пароль: Восстановить пароль
Загрузка...

Подлежит уничтожению [01-04 из 04] (2019) WEBRip от GeneralFilm

Скачать podlezhit-unichtozheniyu-01-04-iz-2019-webrip-ot-generalfilm.torrent
U Магнитная ссылка Размер: 2.18 GB Раздают: 170 Качают: 76 Добавлен: 2019-05-11 06:41:10
Подлежит уничтожению [01-04 из 04] (2019) WEBRip от GeneralFilm

Оригинальное название: Подлежит уничтожению
Год выпуска: 2019
Жанр:  Военный, детектив, драма, шпионский
Выпущено: Россия, ООО «ПРО ТВ», АО «ВайТ Медиа»
Режиссер: Виталий Ващенко
В ролях: Александр Яцко, Дмитрий Шевченко, Антон Батырев, Алина Сергеева, Анна Сагайдачная, Сергей Фролов (II), Сергей Комаровский, Борис Георгиевский, Сергей Деревянко, Константин Октябрьский, Александр Ромашко

О фильме: Июль 1941 года. Немцы рвутся к Москве. В ставке Верховного Главнокомандующего принимают решение применить новое секретное оружие — радиоуправляемые фугасы. Специальные группы саперов минируют дома, вокзалы, заводы. Немцы несут большие потери. Гитлер приказывает любым путем заполучить русскую мину и обезвредить ее. Оперативники НКВД, арестовав одного из засланных немецких агентов, узнают о планах нацистов. Поддержку диверсантам оказывает и вермахт, который начинает наступление именно на этом участке фронта. Но главное — на заводе-изготовителе действует шпион, который помогает немцам, и найти его и обезвредить нужно как можно быстрее.

Качество: WEBRip
Видео: XviD build 73, 720x400 (16:9), 25.000 fps, ~ 1400 Kbps (~ 0.200 bit/pixel)
Аудио: 48.0 kHz, AC3, 2/0 ch, 192 kbps
Продолжительность: 4 х ~ 00:46:00
Перевод: Не требуется [Русский]
Cубтитры: нет

Релиз:


[+] MediaInfo
General
Complete name: D:RazdachiPodlezhit.Unichtozheniju.2019.WEBRip.GeneralFilmPodlezhit.Unichtozheniju.e01.avi
Format: AVI
Format/Info: Audio Video Interleave
File size: 557 MiB
Duration: 45 min 19 s
Overall bit rate: 1 719 kb/s
Writing application: VirtualDubMod 1.5.10.3 | www.virtualdub-fr.org || (build 2550/release)
Writing library: VirtualDubMod build 2550/release

Video
ID: 0
Format: MPEG-4 Visual
Format profile: Advanced Simple@L5
Format settings: BVOP1 / Custom Matrix
Format settings, BVOP: 1
Format settings, QPel: No
Format settings, GMC: No warppoints
Format settings, Matrix: Custom
Codec ID: XVID
Codec ID/Hint: XviD
Duration: 45 min 19 s
Bit rate: 1 517 kb/s
Width: 720 pixels
Height: 400 pixels
Display aspect ratio: 16:9
Frame rate: 25.000 FPS
Color space: YUV
Chroma subsampling: 4:2:0
Bit depth: 8 bits
Scan type: Progressive
Compression mode: Lossy
Bits/(Pixel*Frame): 0.211
Stream size: 492 MiB (88%)
Writing library: XviD 73

Audio
ID: 1
Format: AC-3
Format/Info: Audio Coding 3
Commercial name: Dolby Digital
Codec ID: 2000
Duration: 45 min 19 s
Bit rate mode: Constant
Bit rate: 192 kb/s
Channel(s): 2 channels
Channel layout: L R
Sampling rate: 48.0 kHz
Frame rate: 31.250 FPS (1536 SPF)
Bit depth: 16 bits
Compression mode: Lossy
Stream size: 62.3 MiB (11%)
Alignment: Split accross interleaves
Interleave, duration: 40 ms (1.00 video frame)
Interleave, preload duratio: 500 ms
Service kind: Complete Main



Скриншоты:
[+] Всего файлов в раздаче - 4:
Podlezhit.Unichtozheniju.e01.avi557.32 MB
Podlezhit.Unichtozheniju.e02.avi557.16 MB
Podlezhit.Unichtozheniju.e03.avi557.69 MB
Podlezhit.Unichtozheniju.e04.avi557.34 MB

Показать еще раздачи по запросу подлежит:
2019-05-12 U Подлежит уничтожению [01-04 из 04] (2019) WEBRip от Generalfilm | КПК 752.26 MB ↑ 74 ↓ 14
2019-05-12 U Подлежит уничтожению [01-04 из 04] (2019) WEBRip-AVC от Files-x 3.03 GB ↑ 100 ↓ 63
2019-05-11 U Подлежит уничтожению [01-04 из 04] (2019) WEBRip от GeneralFilm 2.14 GB ↑ 124 ↓ 58
2019-05-11 U Подлежит уничтожению [01-04 из 04] (2019) WEBRip 1080p от ExKinoRay 8.49 GB ↑ 85 ↓ 93
2019-05-11 U Подлежит уничтожению [01-04 из 04] (2019) WEBRip 720p от ExKinoRay 5.80 GB ↑ 130 ↓ 108
2019-05-11 U Подлежит уничтожению [01-04 из 04] (2019) SATRip 2.55 GB ↑ 535 ↓ 182
2019-05-10 U Подлежит уничтожению [01х01-04 из 04] (2019) SATRip-AVC 2.45 GB ↑ 19 ↓ 45

Отзывы
Зарегистрируйтесь чтобы добавить комментарий.
Обратная связь
Copyleft ©