↑↓Torrent.by
Поиск
Логин: Регистрация
Пароль: Восстановить пароль
Загрузка...

Стальная страна / Steel Country (2018) WEB-DL 1080p от ExKinoRay | HDRezka Studio

Скачать stalnaya-strana-steel-country-2018-web-dl-1080p-ot-exkinoray-hdrezka-studio.torrent
U Магнитная ссылка Размер: 3.28 GB Раздают: 90 Качают: 65 Добавлен: 2019-05-11 06:41:26
Стальная страна / Steel Country (2018) WEB-DL 1080p от ExKinoRay | HDRezka Studio

Название: Стальная страна
Оригинальное название: Steel Country (A Dark Place)
Год выпуска: 2018
Жанр:  Триллер, детектив
Режиссер: Саймон Феллоуз
В ролях: Эндрю Скотт, Денис Гоф, Дж.Д. Эвермор, Катрин Дайер, Брона Во, Грифф Ферст, Сандра Эллис Лэфферти, Кристиан Финлейсон, Джаред Банкенс, Кори Скотт Аллен

Описание:   Когда мальчик пропадает без вести на окраине сонного городка в штатах, местный мусорщик Дональд решает разобраться с этим делом сам. Работая над этим он сталкивается с враждебностью со стороны полицейских и всех остальных, когда начинает задавать неудобные вопросы об обстоятельствах жизни мертвого ребенка. Донни совсем не умный и не хитрый, поэтому сразу весь город - и скорбящие родители - узнают, о том, что он ищет правду. Вскоре враждебность превращается в прямые угрозы, которые только усиливают его подозрение, что в этом инциденте есть какая-то скрытая, мрачная правда.

Выпущено: Великобритания, Bedlam Productions
Продолжительность: 01:29:38
Перевод: Профессиональный (многоголосый, закадровый) | HDRezka Studio
Субтитры: Английские

БЕЗ КАКОЙ-ЛИБО РЕКЛАМЫ!

Формат: MKV
Качество: WEB-DL 1080p
Видео: MPEG-4 AVC, 1920x800 (2.40:1), 23.976 fps, 4496 Kbps, 0.123 bit/pixel
Аудио 1: 48 kHz, AC3, 2.0, 256 Kbps | MVO | RUS |
Аудио 2: 48 kHz, AC3, 5.1, 384 Kbps | Оригинал |  ENG |

Релиз:

Автор релиза:


[+] ОтчетМедиаИнфо
General
Unique ID                                : 180459057460221706713837988472662218118 (0x87C32676C64035C0B8BF9A0BBEAB5586)
Complete name                            : F:A.Dark.Place.2018.MVO.1080p.WEB-DL.ExKinoRay.mkv
Format                                   : Matroska
Format version                           : Version 2
File size                                : 3.28 GiB
Duration                                 : 1 h 29 min
Overall bit rate                         : 5 240 kb/s
Movie name                               : A Dark Place 2018 from ExKinoRay
Encoded date                             : UTC 2019-05-10 17:48:56
Writing application                      : mkvmerge v5.6.0 ('Kenya Kane') built on May 27 2012 16:44:04
Writing library                          : libebml v1.2.3 + libmatroska v1.3.0

Video
ID                                       : 1
Format                                   : AVC
Format/Info                              : Advanced Video Codec
Format profile                           : High@L4
Format settings, CABAC                   : Yes
Format settings, ReFrames                : 5 frames
Codec ID                                 : V_MPEG4/ISO/AVC
Duration                                 : 1 h 29 min
Bit rate                                 : 4 496 kb/s
Width                                    : 1 912 pixels
Height                                   : 800 pixels
Display aspect ratio                     : 2.40:1
Frame rate mode                          : Constant
Frame rate                               : 23.976 (24000/1001) FPS
Color space                              : YUV
Chroma subsampling                       : 4:2:0
Bit depth                                : 8 bits
Scan type                                : Progressive
Bits/(Pixel*Frame)                       : 0.123
Stream size                              : 2.82 GiB (86%)
Title                                    : A.Dark.Place.2018.1080p
Language                                 : English
Default                                  : Yes
Forced                                   : No
Color range                              : Limited
Color primaries                          : BT.709
Transfer characteristics                 : BT.709
Matrix coefficients                      : BT.709

Audio #1
ID                                       : 2
Format                                   : AC-3
Format/Info                              : Audio Coding 3
Mode extension                           : CM (complete main)
Format settings, Endianness              : Big
Codec ID                                 : A_AC3
Duration                                 : 1 h 29 min
Bit rate mode                            : Constant
Bit rate                                 : 256 kb/s
Channel(s)                               : 2 channels
Channel positions                        : Front: L R
Sampling rate                            : 48.0 kHz
Frame rate                               : 31.250 FPS (1536 spf)
Compression mode                         : Lossy
Delay relative to video                  : -42 ms
Stream size                              : 164 MiB (5%)
Title                                    : MVO
Language                                 : Russian
Default                                  : Yes
Forced                                   : No

Audio #2
ID                                       : 3
Format                                   : AC-3
Format/Info                              : Audio Coding 3
Mode extension                           : CM (complete main)
Format settings, Endianness              : Big
Codec ID                                 : A_AC3
Duration                                 : 1 h 29 min
Bit rate mode                            : Constant
Bit rate                                 : 384 kb/s
Channel(s)                               : 6 channels
Channel positions                        : Front: L C R, Side: L R, LFE
Sampling rate                            : 48.0 kHz
Frame rate                               : 31.250 FPS (1536 spf)
Compression mode                         : Lossy
Delay relative to video                  : -42 ms
Stream size                              : 246 MiB (7%)
Language                                 : English
Default                                  : No
Forced                                   : No

Text
ID                                       : 4
Format                                   : UTF-8
Codec ID                                 : S_TEXT/UTF8
Codec ID/Info                            : UTF-8 Plain Text
Language                                 : English
Default                                  : No
Forced                                   : No

Menu
00:00:00.000                             : en:1
00:10:23.665                             : en:2
00:19:45.226                             : en:3
00:30:52.768                             : en:4
00:38:53.915                             : en:5
00:49:20.166                             : en:6
00:58:21.999                             : en:7
01:07:35.677                             : en:8
01:14:24.001                             : en:9
01:25:37.215                             : en:10




Скриншоты:
[+] Всего файлов в раздаче - 1:
A.Dark.Place.2018.MVO.1080p.WEB-DL.ExKinoRay.mkv3.28 GB

Показать еще раздачи по запросу стальная:
2019-05-17 U Стальная страна / Steel Country (2018) WEB-DLRip от Portablius | HDRezka Studio 745.74 MB ↑ 49 ↓ 4
2019-05-12 U Стальная страна / Steel Country (2018) WEB-DLRip-AVC от ExKinoRay | HDRezka Studio 744.08 MB ↑ 94 ↓ 17
2019-05-11 U Стальная страна / Steel Country (2018) WEB-DLRip от ExKinoRay | HDRezka Studio 1.35 GB ↑ 237 ↓ 41
2017-10-04 U Стальная звезда / Tin Star [S01] (2017) HDTVRip | IdeaFilm 6.14 GB ↑ 61 ↓ 39
2017-09-19 U Стальная звезда / Tin Star [01x01-02 из 10] (2017) HDTV 720p | Amedia 2К1.95 GB ↑ 67 ↓ 17
2017-09-12 U Стальная звезда / Tin Star [01x01 из 10] (2017) HDTVRip | IdeaFilm 551.62 MB ↑ 48 ↓ 2
2017-09-11 U Стальная звезда / Tin Star [01x01 из 10] (2017) HDTVRip 720p | IdeaFilm 1.41 GB ↑ 114 ↓ 46

Отзывы
Зарегистрируйтесь чтобы добавить комментарий.
Обратная связь
Copyleft ©