↑↓Torrent.by
Поиск
Логин: Регистрация
Пароль: Восстановить пароль
Загрузка...

Биндюжник и король (1989) DVDRip-AVC от KORSAR

Скачать bindyuzhnik-i-korol-1989-dvdrip-avc-ot-korsar.torrent
U Магнитная ссылка Размер: 5.43 GB Раздают: 63 Качают: 15 Добавлен: 2019-05-11 06:42:06
Биндюжник и король (1989) DVDRip-AVC от KORSAR

Биндюжник и король

Жанр:  Мюзикл, драма, комедия
Год выпуска: 1989
Режиссер: Владимир Алейников
В ролях: Армен Джигарханян, Зиновий Гердт, Раиса Недашковская, Ирина Розанова, Максим Леонидов, Андрей Ургант, Татьяна Васильева, Роман Карцев, Евгений Евстигнеев, Николай Добрынин, Георгий Пицхелаури

О фильме:
Молдаванка — легендарный район дореволюционной Одессы, суматошно-беззаботный мир, до краев полный по — южному яркой жизнь. Здесь обитает пестрый неунывающий люд, а также гордость Молдаванки — обаятельный бандит Беня Крик по прозвищу Король, сын биндюжника Менделя Крика. Вся эта история начинается, когда Мендель решил оставить семью и уйти к молодой красавице Маруське, продав свою знаменитую на всю Одессу конюшню…

Страна: СССР
Производство: Киностудия им. М. Горького
Продолжительность: 01:20:37 + 01:20:36
Перевод: Не требуется

Файл
Качество: DVDRip-AVC
Видео: MPEG-4 AVC, 686x572@731x572, 25 fps, 4214 Кбит/с + 694x572@740x572, 25 fps, 4280 Кбит/с
Аудио 1: Русский, AC3, 6 ch, 384 Кбит/с
Аудио 2: Русский, AC3, 1 ch, 192 Кбит/с
Cубтитры: нет
Навигация по главам: есть

Релиз от: Cthulhu


[+] Дополнительно:
Фильм-мюзикл по мотивам произведений Исаака Бабеля "Закат" и "Одесские рассказы". Содержание рассказать невозможно, но я уверен, что тот, кто не читал, то хотя бы слышал об этих гениальных произведениях о колоритнейших представителях города Одесса. Все герои, по большей части, бандиты, а имена актеров, воплотивших "биндюжников" на экране, говорят сами за себя. По сути это драматическое собрание анекдотов с уникальным чувством юмора, поданное под хорошую музыку с танцами и песнями.



[+] Mediainfo. Часть 1
x264 [info]: frame I:705   Avg QP:18.10  size: 67748
x264 [info]: frame P:24447 Avg QP:19.69  size: 42301
x264 [info]: frame B:95774 Avg QP:21.93  size: 15306
x264 [info]: consecutive B-frames:  0.9%  0.9%  5.1% 18.5% 23.3% 48.0%  2.7%  0.3%  0.2%  0.0%  0.0%

General
Unique ID                                : 290327619678307603887139216188628018855 (0xDA6B10CDEBE4EF745C2813846F8426A7)
Complete name                            : S:FILMSБиндюжник и король (1989)Биндюжник и король. Часть 1 (1989) DVDRip-AVC - KORSAR.mkv
Format                                   : Matroska
Format version                           : Version 4 / Version 2
File size                                : 2.70 GiB
Duration                                 : 1 h 20 min
Overall bit rate                         : 4 792 kb/s
Movie name                               : Биндюжник и король. Часть 1 (1989)
Encoded date                             : UTC 2019-05-08 07:00:22
Writing application                      : mkvmerge v28.2.0 ('The Awakening') 64-bit
Writing library                          : libebml v1.3.6 + libmatroska v1.4.9
Cover                                    : Yes
Attachments                              : cover3.jpg

Video
ID                                       : 1
Format                                   : AVC
Format/Info                              : Advanced Video Codec
Format profile                           : High@L4.1
Format settings, CABAC                   : Yes
Format settings, RefFrames               : 15 frames
Codec ID                                 : V_MPEG4/ISO/AVC
Duration                                 : 1 h 20 min
Bit rate                                 : 4 214 kb/s
Width                                    : 686 pixels
Height                                   : 572 pixels
Display aspect ratio                     : 1.278
Original display aspect ratio            : 1.279
Frame rate mode                          : Constant
Frame rate                               : 25.000 FPS
Color space                              : YUV
Chroma subsampling                       : 4:2:0
Bit depth                                : 8 bits
Scan type                                : Progressive
Bits/(Pixel*Frame)                       : 0.430
Stream size                              : 2.37 GiB (88%)
Writing library                          : x264 core 152 r2851kMod ba24899
Encoding settings                        : cabac=1 / ref=15 / deblock=1:-2:-1 / analyse=0x3:0x133 / me=umh / subme=11 / psy=1 / fade_compensate=0.00 / psy_rd=1.00:0.05 / mixed_ref=1 / me_range=32 / chroma_me=1 / trellis=2 / 8x8dct=1 / cqm=0 / deadzone=21,11 / fast_pskip=1 / chroma_qp_offset=-3 / threads=18 / lookahead_threads=4 / sliced_threads=0 / nr=0 / decimate=1 / interlaced=0 / bluray_compat=0 / constrained_intra=0 / bframes=10 / b_pyramid=2 / b_adapt=2 / b_bias=0 / direct=3 / weightb=1 / open_gop=0 / weightp=2 / keyint=250 / keyint_min=25 / scenecut=40 / intra_refresh=0 / rc_lookahead=60 / rc=crf / mbtree=0 / crf=18.0000 / qcomp=0.65 / qpmin=0 / qpmax=39 / qpstep=4 / vbv_maxrate=50000 / vbv_bufsize=62500 / crf_max=0.0 / nal_hrd=none / filler=0 / ip_ratio=1.40 / pb_ratio=1.30 / aq=1:1.00
Language                                 : Russian
Default                                  : Yes
Forced                                   : No
Color range                              : Limited
Color primaries                          : BT.601 PAL
Transfer characteristics                 : BT.470 System B, BT.470 System G
Matrix coefficients                      : BT.601

Audio #1
ID                                       : 2
Format                                   : AC-3
Format/Info                              : Audio Coding 3
Mode extension                           : CM (complete main)
Format settings, Endianness              : Big
Codec ID                                 : A_AC3
Duration                                 : 1 h 20 min
Bit rate mode                            : Constant
Bit rate                                 : 384 kb/s
Channel(s)                               : 6 channels
Channel positions                        : Front: L C R, Side: L R, LFE
Sampling rate                            : 48.0 kHz
Frame rate                               : 31.250 FPS (1536 spf)
Compression mode                         : Lossy
Stream size                              : 221 MiB (8%)
Language                                 : Russian
Default                                  : Yes
Forced                                   : No

Audio #2
ID                                       : 3
Format                                   : AC-3
Format/Info                              : Audio Coding 3
Mode extension                           : CM (complete main)
Format settings, Endianness              : Big
Codec ID                                 : A_AC3
Duration                                 : 1 h 20 min
Bit rate mode                            : Constant
Bit rate                                 : 192 kb/s
Channel(s)                               : 1 channel
Channel positions                        : Front: C
Sampling rate                            : 48.0 kHz
Frame rate                               : 31.250 FPS (1536 spf)
Compression mode                         : Lossy
Stream size                              : 111 MiB (4%)
Language                                 : Russian
Default                                  : No
Forced                                   : No

Menu
00:00:00.000                             : en:Chapter 1
00:06:16.400                             : en:Chapter 2
00:12:20.440                             : en:Chapter 3
00:19:02.160                             : en:Chapter 4
00:25:21.240                             : en:Chapter 5
00:33:17.280                             : en:Chapter 6
00:39:59.960                             : en:Chapter 7
00:45:03.480                             : en:Chapter 8
00:52:38.120                             : en:Chapter 9
01:00:31.760                             : en:Chapter 10
01:06:03.400                             : en:Chapter 11
01:14:00.760                             : en:Chapter 12
01:20:36.560                             : en:Chapter 13



[+] Mediainfo. Часть 2
x264 [info]: frame I:671   Avg QP:17.90  size: 67496
x264 [info]: frame P:24249 Avg QP:19.52  size: 43220
x264 [info]: frame B:95997 Avg QP:21.87  size: 15569
x264 [info]: consecutive B-frames:  0.9%  0.7%  4.7% 17.5% 24.3% 49.3%  2.2%  0.3%  0.1%  0.0%  0.0%

General
Unique ID                                : 166983211050804051408389871165582993525 (0x7D9FCBF06B839864AACC5C8C41FDE875)
Complete name                            : S:FILMSБиндюжник и король (1989)Биндюжник и король. Часть 2 (1989) DVDRip-AVC - KORSAR.mkv
Format                                   : Matroska
Format version                           : Version 4 / Version 2
File size                                : 2.74 GiB
Duration                                 : 1 h 20 min
Overall bit rate                         : 4 859 kb/s
Movie name                               : Биндюжник и король. Часть 2 (1989)
Encoded date                             : UTC 2019-05-08 14:08:31
Writing application                      : mkvmerge v28.2.0 ('The Awakening') 64-bit
Writing library                          : libebml v1.3.6 + libmatroska v1.4.9
Cover                                    : Yes
Attachments                              : cover3.jpg

Video
ID                                       : 1
Format                                   : AVC
Format/Info                              : Advanced Video Codec
Format profile                           : High@L4.1
Format settings, CABAC                   : Yes
Format settings, RefFrames               : 15 frames
Codec ID                                 : V_MPEG4/ISO/AVC
Duration                                 : 1 h 20 min
Bit rate                                 : 4 280 kb/s
Width                                    : 694 pixels
Height                                   : 572 pixels
Display aspect ratio                     : 1.294
Frame rate mode                          : Constant
Frame rate                               : 25.000 FPS
Color space                              : YUV
Chroma subsampling                       : 4:2:0
Bit depth                                : 8 bits
Scan type                                : Progressive
Bits/(Pixel*Frame)                       : 0.431
Stream size                              : 2.41 GiB (88%)
Writing library                          : x264 core 152 r2851kMod ba24899
Encoding settings                        : cabac=1 / ref=15 / deblock=1:-2:-1 / analyse=0x3:0x133 / me=umh / subme=11 / psy=1 / fade_compensate=0.00 / psy_rd=1.00:0.05 / mixed_ref=1 / me_range=32 / chroma_me=1 / trellis=2 / 8x8dct=1 / cqm=0 / deadzone=21,11 / fast_pskip=1 / chroma_qp_offset=-3 / threads=18 / lookahead_threads=4 / sliced_threads=0 / nr=0 / decimate=1 / interlaced=0 / bluray_compat=0 / constrained_intra=0 / bframes=10 / b_pyramid=2 / b_adapt=2 / b_bias=0 / direct=3 / weightb=1 / open_gop=0 / weightp=2 / keyint=250 / keyint_min=25 / scenecut=40 / intra_refresh=0 / rc_lookahead=60 / rc=crf / mbtree=0 / crf=18.0000 / qcomp=0.65 / qpmin=0 / qpmax=39 / qpstep=4 / vbv_maxrate=50000 / vbv_bufsize=62500 / crf_max=0.0 / nal_hrd=none / filler=0 / ip_ratio=1.40 / pb_ratio=1.30 / aq=1:1.00
Language                                 : Russian
Default                                  : Yes
Forced                                   : No
Color range                              : Limited
Color primaries                          : BT.601 PAL
Transfer characteristics                 : BT.470 System B, BT.470 System G
Matrix coefficients                      : BT.601

Audio #1
ID                                       : 2
Format                                   : AC-3
Format/Info                              : Audio Coding 3
Mode extension                           : CM (complete main)
Format settings, Endianness              : Big
Codec ID                                 : A_AC3
Duration                                 : 1 h 20 min
Bit rate mode                            : Constant
Bit rate                                 : 384 kb/s
Channel(s)                               : 6 channels
Channel positions                        : Front: L C R, Side: L R, LFE
Sampling rate                            : 48.0 kHz
Frame rate                               : 31.250 FPS (1536 spf)
Compression mode                         : Lossy
Stream size                              : 221 MiB (8%)
Language                                 : Russian
Default                                  : Yes
Forced                                   : No

Audio #2
ID                                       : 3
Format                                   : AC-3
Format/Info                              : Audio Coding 3
Mode extension                           : CM (complete main)
Format settings, Endianness              : Big
Codec ID                                 : A_AC3
Duration                                 : 1 h 20 min
Bit rate mode                            : Constant
Bit rate                                 : 192 kb/s
Channel(s)                               : 1 channel
Channel positions                        : Front: C
Sampling rate                            : 48.0 kHz
Frame rate                               : 31.250 FPS (1536 spf)
Compression mode                         : Lossy
Stream size                              : 111 MiB (4%)
Language                                 : Russian
Default                                  : No
Forced                                   : No

Menu
00:00:00.000                             : en:Chapter 1
00:03:53.800                             : en:Chapter 2
00:11:07.280                             : en:Chapter 3
00:19:59.480                             : en:Chapter 4
00:26:04.800                             : en:Chapter 5
00:32:42.880                             : en:Chapter 6
00:39:42.720                             : en:Chapter 7
00:45:38.760                             : en:Chapter 8
00:49:55.680                             : en:Chapter 9
00:58:19.480                             : en:Chapter 10
01:06:23.080                             : en:Chapter 11
01:15:28.440                             : en:Chapter 12
01:20:41.160                             : en:Chapter 13



Скриншоты:
[+] Всего файлов в раздаче - 2:
Биндюжник и король. Часть 2 (1989) DVDRip-AVC - KORSAR.mkv2.74 GB
Биндюжник и король. Часть 1 (1989) DVDRip-AVC - KORSAR.mkv2.70 GB

Отзывы
Зарегистрируйтесь чтобы добавить комментарий.
Обратная связь
Copyleft ©