↑↓Torrent.by
Поиск
Логин: Регистрация
Пароль: Восстановить пароль
Загрузка...

Чего хотят мужчины / What Men Want (2019) BDRip 1080p | HDRezka Studio

Скачать chego-hotyat-muzhchiny-what-men-want-2019-bdrip-1080p-hdrezka-studio.torrent
U Магнитная ссылка Размер: 13.44 GB Раздают: 37 Качают: 18 Добавлен: 2019-05-11 06:42:30
Чего хотят мужчины / What Men Want (2019) BDRip 1080p | HDRezka Studio

Название: Чего хотят мужчины
Оригинальное название: What Men Want
Год выпуска: 2019
Жанр:  Фэнтези, мелодрама, комедия
Режиссер: Адам Шенкман
В ролях: Тараджи П. Хенсон, Кристен Ледлоу, Джош Бренер, Келлан Латс, Джастин Альварез, Крис Витаск, Макс Гринфилд, Пол Брайан Джонсон, Брайан Босворт, Каусар Мохаммед, Трэйси Морган

Описание: Али Дэвис - успешный менеджер спортивных звезд, продвижению по карьере которой постоянно мешают коллеги-мужчины. Получив возможность слышать мысли мужчин, она использует свой талант, чтобы изменить правила игры и заключить контракт с молодым и талантливым бейсболистом.

Выпущено: США, BET Films, Paramount Players, Will Packer Productions
Продолжительность: 01:57:06
Перевод: Профессиональный (многоголосый, закадровый) | HDRezka Studio

Файл
Качество: BDRip 1080p
Контейнер: MKV
Видео: MPEG-4 AVC, 15.6 Мбит/с, 1920x804
Аудио 1: Русский: AC3, 2 ch, 192 Кбит/с - HDRezka Studio
Аудио 2: Английский: AC3, 6 ch, 640 Кбит/с - Original
Субтитры: Английские


[+] MediaInfo
General
Unique ID                                : 70332712373723504104371159392764780176 (0x34E996726584846987FBD4C0576B5E90)
Complete name                            : G:What.Men.Want.2019.BDRip.1080p.mkv
Format                                   : Matroska
Format version                           : Version 4 / Version 2
File size                                : 13.4 GiB
Duration                                 : 1 h 57 min
Overall bit rate                         : 16.4 Mb/s
Encoded date                             : UTC 2019-05-09 21:06:51
Writing application                      : mkvmerge v20.0.0 ('I Am The Sun') 64-bit
Writing library                          : libebml v1.3.5 + libmatroska v1.4.8

Video
ID                                       : 1
Format                                   : AVC
Format/Info                              : Advanced Video Codec
Format profile                           : High@L4.1
Format settings                          : CABAC / 5 Ref Frames
Format settings, CABAC                   : Yes
Format settings, RefFrames               : 5 frames
Codec ID                                 : V_MPEG4/ISO/AVC
Duration                                 : 1 h 57 min
Bit rate                                 : 15.6 Mb/s
Width                                    : 1 920 pixels
Height                                   : 804 pixels
Display aspect ratio                     : 2.40:1
Frame rate mode                          : Constant
Frame rate                               : 23.976 (24000/1001) FPS
Color space                              : YUV
Chroma subsampling                       : 4:2:0
Bit depth                                : 8 bits
Scan type                                : Progressive
Bits/(Pixel*Frame)                       : 0.422
Stream size                              : 12.8 GiB (95%)
Writing library                          : x264 core 155 r2867+74 66b5600 t_mod_Custom_2 [8-bit@all X86_64]
Encoding settings                        : cabac=1 / ref=5 / deblock=1:-3:-3 / analyse=0x3:0x113 / me=umh / subme=11 / psy=1 / fade_compensate=0.00 / psy_rd=1.00:0.00 / mixed_ref=1 / me_range=32 / chroma_me=1 / trellis=2 / 8x8dct=1 / cqm=0 / deadzone=21,11 / fast_pskip=0 / chroma_qp_offset=-2 / threads=18 / lookahead_threads=3 / sliced_threads=0 / nr=0 / decimate=0 / interlaced=0 / bluray_compat=0 / constrained_intra=0 / fgo=0 / bframes=8 / b_pyramid=2 / b_adapt=2 / b_bias=0 / direct=3 / weightb=1 / open_gop=0 / weightp=2 / keyint=250 / keyint_min=23 / scenecut=40 / intra_refresh=0 / rc_lookahead=60 / rc=crf / mbtree=0 / crf=15.5000 / qcomp=0.60 / qpmin=0:0:0 / qpmax=69:69:69 / qpstep=4 / vbv_maxrate=62500 / vbv_bufsize=78125 / crf_max=0.0 / nal_hrd=none / filler=0 / ip_ratio=1.30 / pb_ratio=1.20 / aq=3:0.80 / aq-sensitivity=10.00 / aq-factor=1.00:1.00:1.00 / aq2=0 / aq3=0
Language                                 : English
Default                                  : Yes
Forced                                   : No
Color range                              : Limited
Color primaries                          : BT.709
Transfer characteristics                 : BT.709
Matrix coefficients                      : BT.709

Audio #1
ID                                       : 2
Format                                   : AC-3
Format/Info                              : Audio Coding 3
Codec ID                                 : A_AC3
Duration                                 : 1 h 57 min
Bit rate mode                            : Constant
Bit rate                                 : 192 kb/s
Channel(s)                               : 2 channels
Channel positions                        : Front: L R
Sampling rate                            : 48.0 kHz
Frame rate                               : 31.250 FPS (1536 SPF)
Bit depth                                : 16 bits
Compression mode                         : Lossy
Stream size                              : 161 MiB (1%)
Title                                    : MVO, HDrezka Studio
Language                                 : Russian
Service kind                             : Complete Main
Default                                  : Yes
Forced                                   : No

Audio #2
ID                                       : 3
Format                                   : AC-3
Format/Info                              : Audio Coding 3
Codec ID                                 : A_AC3
Duration                                 : 1 h 57 min
Bit rate mode                            : Constant
Bit rate                                 : 640 kb/s
Channel(s)                               : 6 channels
Channel positions                        : Front: L C R, Side: L R, LFE
Sampling rate                            : 48.0 kHz
Frame rate                               : 31.250 FPS (1536 SPF)
Bit depth                                : 16 bits
Compression mode                         : Lossy
Stream size                              : 536 MiB (4%)
Language                                 : English
Service kind                             : Complete Main
Default                                  : No
Forced                                   : No

Text
ID                                       : 4
Format                                   : UTF-8
Codec ID                                 : S_TEXT/UTF8
Codec ID/Info                            : UTF-8 Plain Text
Duration                                 : 1 h 52 min
Bit rate                                 : 96 b/s
Count of elements                        : 2267
Stream size                              : 79.3 KiB (0%)
Language                                 : English
Default                                  : No
Forced                                   : No

Menu
00:00:00.000                             : en:00:00:00.000
00:11:26.519                             : en:00:11:26.519
00:22:01.904                             : en:00:22:01.904
00:31:02.444                             : en:00:31:02.444
00:43:07.668                             : en:00:43:07.668
00:51:37.970                             : en:00:51:37.970
01:01:19.843                             : en:01:01:19.843
01:10:45.616                             : en:01:10:45.616
01:18:53.395                             : en:01:18:53.395
01:28:42.901                             : en:01:28:42.901
01:38:51.843                             : en:01:38:51.843
01:47:41.664                             : en:01:47:41.664



Скриншоты:
[+] Всего файлов в раздаче - 1:
What.Men.Want.2019.BDRip.1080p.mkv13.44 GB

Показать еще раздачи по запросу чего:
2019-05-17 U Чего хотят мужчины / What Men Want (2019) BDRip 720p от ExKinoRay | iTunes 4.41 GB ↑ 58 ↓ 18
2019-05-16 U Чего хотят мужчины / What Men Want (2019) BDRip 1080p от селезень | iTunes 15.02 GB ↑ 97 ↓ 127
2019-05-16 U Чего хотят мужчины / What Men Want (2019) BDRip от MegaPeer | iTunes 1.41 GB ↑ 389 ↓ 99
2019-05-09 U Чего хотят мужчины / What Men Want (2019) BDRip-AVC от ExKinoRay | HDRezka Studio 2.08 GB ↑ 134 ↓ 45
2019-05-09 U Чего хотят мужчины / What Men Want (2019) BDRip от ExKinoRay | HDRezka Studio 1.45 GB ↑ 82 ↓ 38
2018-04-25 U Мы забыли даже то, чего не знали / We've Forgotten More Than We Ever Knew (2016) WEBRip 1080p | HDrezka Studio 3.29 GB ↑ 42 ↓ 11
2018-04-24 U Мы забыли даже то, чего не знали / We've Forgotten More Than We Ever Knew (2017) WEBRip | HDrezka Studio 1.43 GB ↑ 143 ↓ 65

Отзывы
Зарегистрируйтесь чтобы добавить комментарий.
Обратная связь
Copyleft ©