↑↓Torrent.by
Поиск
Логин: Регистрация
Пароль: Восстановить пароль
Загрузка...

100 вещей и ничего лишнего / 100 Dinge (2018) WEB-DL 1080p от селезень | iTunes

Скачать 100-veschey-i-nichego-lishnego-dinge-2018-web-dl-1080p-ot-selezen-itunes.torrent
U Магнитная ссылка Размер: 4.42 GB Раздают: 662 Качают: 278 Добавлен: 2019-05-11 14:20:29
100 вещей и ничего лишнего / 100 Dinge (2018) WEB-DL 1080p от селезень | iTunes

Название: 100 вещей и ничего лишнего
Оригинальное название: 100 Dinge
Год выхода: 2018
Жанр: Комедия
Режиссер: Флориан Давид Фитц
В ролях: Флориан Давид Фитц, Маттиас Швайгхефер, Мириам Штайн, Ханнелоре Эльснер, Вольфганг Штумф, Катарина Тальбах, Йоханнес Алльмайер, Сара Виктория Фрик, Макс Бретшнайдер, Мария Фуртвенглер

О фильме: Лучшие друзья Пауль и Тони, находясь буквально в шаге от богатства, на спор отказываются от всего своего имущества, чтобы доказать — вещи не имеют на парней никакого влияния. Ставки высоки, а их пари оказывается под угрозой, когда на горизонте появляется симпатичная девушка, ведь сложно произвести впечатление, когда ты миллионер без штанов…

Страна: Германия
Студия: Erfttal Film, Pantaleon Films, Warner Bros.
Продолжительность: 01:50:49
Перевод: Дублированный | iTunes

Качество: WEB-DL 1080p
Видео: MPEG-4 AVC, 1920x804, 4549 Kbit/s, 23.976 fps
Звук:
Аудио #01: 48 kHz, AC3, 5.1, 384 Kbps | iTunes | RUS |
Аудио #02: 48 kHz, AC3, 5.1, 384 Kbps | iTunes | UKR |
Аудио #03: 48 kHz, AC3, 5.1, 384 Kbps | Оригинал |  GER |
Субтитры: Русские (Full), английские

Релиз:


[+] MI
General
Unique ID                   : 63567130991957009932727594897482123623 (0x2FD29587F2258C98ABBB4AD9FD7F0967)
Complete name               : D:Video111100.Dinge.2018.WEB-DL.1080p.seleZen.mkv
Format                      : Matroska
Format version              : Version 4
File size                   : 4.42 GiB
Duration                    : 1 h 50 min
Overall bit rate            : 5 704 kb/s
Movie name                  : 100 Dinge 2018 from селезень
Encoded date                : UTC 2019-05-11 02:59:37
Writing application         : mkvmerge v32.0.0 ('Astral Progressions') 64-bit
Writing library             : libebml v1.3.7 + libmatroska v1.5.0

Video
ID                          : 1
Format                      : AVC
Format/Info                 : Advanced Video Codec
Format profile              : High@L4
Format settings             : CABAC / 5 Ref Frames
Format settings, CABAC      : Yes
Format settings, Reference  : 5 frames
Codec ID                    : V_MPEG4/ISO/AVC
Duration                    : 1 h 50 min
Bit rate                    : 4 549 kb/s
Width                       : 1 920 pixels
Height                      : 804 pixels
Display aspect ratio        : 2.40:1
Frame rate mode             : Constant
Frame rate                  : 23.976 FPS
Color space                 : YUV
Chroma subsampling          : 4:2:0
Bit depth                   : 8 bits
Scan type                   : Progressive
Bits/(Pixel*Frame)          : 0.123
Stream size                 : 3.52 GiB (80%)
Language                    : German
Default                     : Yes
Forced                      : No
Color range                 : Limited
Color primaries             : BT.709
Transfer characteristics    : BT.709
Matrix coefficients         : BT.709

Audio #1
ID                          : 2
Format                      : AC-3
Format/Info                 : Audio Coding 3
Commercial name             : Dolby Digital
Codec ID                    : A_AC3
Duration                    : 1 h 50 min
Bit rate mode               : Constant
Bit rate                    : 384 kb/s
Channel(s)                  : 6 channels
Channel layout              : L R C LFE Ls Rs
Sampling rate               : 48.0 kHz
Frame rate                  : 31.250 FPS (1536 SPF)
Bit depth                   : 16 bits
Compression mode            : Lossy
Stream size                 : 304 MiB (7%)
Title                       : iTunes
Language                    : Russian
Service kind                : Complete Main
Default                     : Yes
Forced                      : Yes

Audio #2
ID                          : 3
Format                      : AC-3
Format/Info                 : Audio Coding 3
Commercial name             : Dolby Digital
Codec ID                    : A_AC3
Duration                    : 1 h 50 min
Bit rate mode               : Constant
Bit rate                    : 384 kb/s
Channel(s)                  : 6 channels
Channel layout              : L R C LFE Ls Rs
Sampling rate               : 48.0 kHz
Frame rate                  : 31.250 FPS (1536 SPF)
Bit depth                   : 16 bits
Compression mode            : Lossy
Stream size                 : 304 MiB (7%)
Title                       : iTunes
Language                    : Ukrainian
Service kind                : Complete Main
Default                     : No
Forced                      : No

Audio #3
ID                          : 4
Format                      : AC-3
Format/Info                 : Audio Coding 3
Commercial name             : Dolby Digital
Codec ID                    : A_AC3
Duration                    : 1 h 50 min
Bit rate mode               : Constant
Bit rate                    : 384 kb/s
Channel(s)                  : 6 channels
Channel layout              : L R C LFE Ls Rs
Sampling rate               : 48.0 kHz
Frame rate                  : 31.250 FPS (1536 SPF)
Bit depth                   : 16 bits
Compression mode            : Lossy
Stream size                 : 304 MiB (7%)
Title                       : Original
Language                    : German
Service kind                : Complete Main
Default                     : No
Forced                      : No

Text #1
ID                          : 5
Format                      : UTF-8
Codec ID                    : S_TEXT/UTF8
Codec ID/Info               : UTF-8 Plain Text
Duration                    : 1 h 45 min
Bit rate                    : 103 b/s
Count of elements           : 1612
Stream size                 : 79.6 KiB (0%)
Title                       : Full
Language                    : Russian
Default                     : No
Forced                      : No

Text #2
ID                          : 6
Format                      : UTF-8
Codec ID                    : S_TEXT/UTF8
Codec ID/Info               : UTF-8 Plain Text
Duration                    : 1 h 45 min
Bit rate                    : 57 b/s
Count of elements           : 1532
Stream size                 : 44.6 KiB (0%)
Language                    : English
Default                     : No
Forced                      : No

Menu
00:00:00.000                : en:Der Pitch
00:08:41.938                : en:Die Wette
00:19:55.860                : en:Die erste Sache
00:30:08.055                : en:Ein Date
00:41:41.540                : en:Freier Wille
00:51:22.369                : en:Big Day
01:01:12.709                : en:Erinnerungen
01:09:07.892                : en:Perfekte Waffe
01:19:33.099                : en:Loch in der Seele
01:26:48.868                : en:Hase und Igel
01:33:38.485                : en:Das war´s
01:38:46.416                : en:Perfekter Zeitpunkt



Скриншоты:
[+] Всего файлов в раздаче - 1:
100.Dinge.2018.WEB-DL.1080p.seleZen.mkv4.42 GB

Похожие раздачи по запросу - вещей:
2019-05-30 U 100 вещей и ничего лишнего / 100 Dinge (2018) BDRip от MegaPeer | iTunes 1.41 GB ↑ 155 ↓ 15
2019-05-09 U 100 вещей и ничего лишнего / 100 Dinge (2018) WEB-DLRip от MegaPeer | iTunes 1К1.46 GB ↑ 865 ↓ 293

Отзывы
Зарегистрируйтесь чтобы добавить комментарий.
Обратная связь
Copyleft ©