↑↓Torrent.by
Поиск
Логин: Регистрация
Пароль: Восстановить пароль
Загрузка...

Полицейский с Рублёвки. Новогодний беспредел (2018) WEBRip-AVC

Скачать policeyskiy-s-rublevki-novogodniy-bespredel-2018-webrip-avc.torrent
U Магнитная ссылка Размер: 743.25 MB Раздают: 52 Качают: 15 Добавлен: 2019-05-11 14:21:36
Полицейский с Рублёвки. Новогодний беспредел (2018) WEBRip-AVC

Название: Полицейский с Рублёвки. Новогодний беспредел
Год выхода: 2018
Жанр:  Комедия
Режиссер: Илья Куликов
В ролях: Александр Петров, Сергей Бурунов, Александра Бортич, Роман Попов, Татьяна Бабенкова, София Каштанова, Рина Гришина, Ирина Вилкова, Никита Легостев, Александр Буянов

О фильме:
В канун нового года отделение полиции «Барвиха Северное» оказывается под угрозой закрытия. Чтобы спасти родной отдел, полицейский с Рублевки Гриша Измайлов вынужден пойти на крайние меры и вместе с оперативниками решает ограбить банк. Он рассчитывает на то, что его коллеги вместе с начальником отдела - Яковлевым легко раскроют это дело, деньги вернут обратно, и все сохранят работу в следующем году. Но все идет не так, как задумал Гриша...

Страна: Россия
Студия: Legio Felix по заказу телеканала ТНТ
Продолжительность: 01:30:02
Перевод: Не требуется
Язык: Русский

Файл                                      
Формат: Matroska
Качество: WEBRip-AVC
Видео: 872x366 at 25.00 fps, x264, ~1057 kbps
Аудио: AAC, 2 ch, ~96 kbps
Субтитры: Нет

***Релиз от: -=DoMiNo=-


[+] M/I
General
Unique ID                   : 178629474935202647678808354912829722467 (0x8662C914BE9EA12FF2EDC7C682E04F63)
Complete name               : Полицейский с Рублёвки.(2018).WEBRip-AVC.[-=DoMiNo=-].mkv
Format                      : Matroska
Format version              : Version 4
File size                   : 743 MiB
Duration                    : 1 h 30 min
Overall bit rate            : 1 154 kb/s
Movie name                  : Полицейский с Рублевки. Новогодний беспредел (2018)
Encoded date                : UTC 2019-05-08 20:18:02
Writing application         : mkvmerge v33.1.0 ('Primrose') 64-bit
Writing library             : libebml v1.3.7 + libmatroska v1.5.0
Attachments                 : poster.jpg

Video
ID                          : 1
Format                      : AVC
Format/Info                 : Advanced Video Codec
Format profile              : High@L4.1
Format settings             : CABAC / 14 Ref Frames
Format settings, CABAC      : Yes
Format settings, Reference  : 14 frames
Codec ID                    : V_MPEG4/ISO/AVC
Duration                    : 1 h 30 min
Bit rate                    : 1 057 kb/s
Width                       : 872 pixels
Height                      : 366 pixels
Display aspect ratio        : 2.40:1
Frame rate mode             : Constant
Frame rate                  : 25.000 FPS
Color space                 : YUV
Chroma subsampling          : 4:2:0
Bit depth                   : 8 bits
Scan type                   : Progressive
Bits/(Pixel*Frame)          : 0.132
Stream size                 : 680 MiB (91%)
Title                       : RIP_BY_-=DoMiNo=-
Writing library             : x264 core 157 r2935 545de2f
Encoding settings           : cabac=1 / ref=14 / deblock=1:-2:-2 / analyse=0x3:0x133 / me=umh / subme=11 / psy=1 / psy_rd=1.00:0.05 / mixed_ref=1 / me_range=32 / chroma_me=1 / trellis=2 / 8x8dct=1 / cqm=0 / deadzone=21,11 / fast_pskip=0 / chroma_qp_offset=-3 / threads=6 / lookahead_threads=1 / sliced_threads=0 / nr=0 / decimate=0 / interlaced=0 / bluray_compat=0 / constrained_intra=0 / bframes=12 / b_pyramid=2 / b_adapt=2 / b_bias=0 / direct=3 / weightb=1 / open_gop=0 / weightp=2 / keyint=250 / keyint_min=25 / scenecut=40 / intra_refresh=0 / rc=2pass / mbtree=0 / bitrate=1057 / ratetol=1.0 / qcomp=0.65 / qpmin=0 / qpmax=69 / qpstep=4 / cplxblur=20.0 / qblur=0.5 / ip_ratio=1.40 / pb_ratio=1.30 / aq=1:0.90
Language                    : Russian
Default                     : Yes
Forced                      : No
Color range                 : Limited
Color primaries             : BT.709
Transfer characteristics    : BT.709
Matrix coefficients         : BT.709

Audio
ID                          : 2
Format                      : AAC LC SBR
Format/Info                 : Advanced Audio Codec Low Complexity with Spectral Band Replication
Commercial name             : HE-AAC
Format settings             : Implicit
Codec ID                    : A_AAC-2
Duration                    : 1 h 30 min
Bit rate                    : 96.0 kb/s
Channel(s)                  : 2 channels
Channel layout              : L R
Sampling rate               : 48.0 kHz
Frame rate                  : 23.438 FPS (2048 SPF)
Compression mode            : Lossy
Stream size                 : 61.8 MiB (8%)
Language                    : Russian
Default                     : Yes
Forced                      : No

Menu
00:00:00.000                : :Глава 1
00:08:14.000                : :Глава 2
00:16:38.000                : :Глава 3
00:25:58.000                : :Глава 4
00:34:46.000                : :Глава 5
00:41:02.000                : :Глава 6
00:46:32.000                : :Глава 7
00:55:42.000                : :Глава 8
01:02:46.000                : :Глава 9
01:11:54.000                : :Глава 10
01:21:00.000                : :Глава 11



Скриншоты:
[+] Всего файлов в раздаче - 1:
Полицейский с Рублёвки.(2018).WEBRip-AVC.[-=DoMiNo=-].mkv743.25 MB

Показать еще раздачи по запросу полицейский:
2019-05-13 U Полицейский с Рублёвки. Новогодний беспредел (2018) WEBRip от ExKinoRay 745.40 MB ↑ 21 ↓ 13
2019-05-07 U Полицейский с Рублевки. Новогодний беспредел (2018) WEBRip от Scarabey 1.38 GB ↑ 68 ↓ 19
2019-05-05 U Полицейский с Рублёвки. Новогодний беспредел (2018) WEBRip от Generalfilm | КПК 342.18 MB ↑ 125 ↓ 27
2019-05-05 U Полицейский с Рублёвки. Новогодний беспредел (2018) HDTVRip от GeneralFilm 744.86 MB ↑ 401 ↓ 86
2019-05-05 U Полицейский с Рублёвки. Новогодний беспредел (2018) WEBRip от Files-x 1.37 GB ↑ 514 ↓ 172
2019-05-05 U Полицейский с Рублёвки. Новогодний беспредел (2018) WEBRip 720p от ExKinoRay 2.32 GB ↑ 949 ↓ 357
2019-05-05 U Полицейский с Рублёвки. Новогодний беспредел (2018) WEBRip-AVC от Files-x 1.37 GB ↑ 106 ↓ 26

Отзывы
Зарегистрируйтесь чтобы добавить комментарий.
Обратная связь
Copyleft ©