↑↓Torrent.by
Поиск
Логин: Регистрация
Пароль: Восстановить пароль
Загрузка...

Сахара / Sahara (2005) BDRip-AVC | D | Open Matte

Скачать sahara-2005-bdrip-avc-d-open-matte.torrent
U Магнитная ссылка Размер: 2.90 GB Раздают: 58 Качают: 20 Добавлен: 2019-05-12 19:22:28
Сахара / Sahara (2005) BDRip-AVC | D | Open Matte

Название: Сахара
Оригинальное название: Sahara
Год выхода: 2005
Жанр:  боевик, триллер, комедия, приключения
Режиссер: Брек Айснер
В ролях: Мэттью МакКонахи, Пенелопа Крус, Стив Зан, Уильям Х. Мэйси, Делрой Линдо, Ленни Джеймс, Патрик Мэлахайд, Рэйн Уилсон, Ламбер Вильсон, Роберт Кавана

О фильме:
Неистребимая жажда приключений толкает Дирка Пита в одну из самых опасных областей Западной Африки. Поиск несметных сокровищ Нила сопровождается страшной тайной — засекреченный «корабль смерти» повинен в гибели людей.

Питу, вместе с другом, необходимо держать ухо востро, собрав воедино смекалку, мужество и героизм, чтобы помочь доктору Еве Рохас победить таинственную болезнь, уносящую человеческие жизни в результате действия и желания себе же подобных.

Страна: Великобритания, Испания, Германия, США
Продолжительность: 02:03:58
Перевод: Профессиональный (полное дублирование)

Файл
Формат: Matroska
Качество: BDRip-AVC | Open Matte | [SAHARA_2005_[JPN]_[Open Matte]_BD-Remux -BLUEBIRD]
Видео: 1024x576 at 23.976 fps, x264, ~2902 kbps
Аудио: AC3, 6 ch, ~448 kbps - | Русский | -
Субтитры: Russian, English

***Релиз от: -=DoMiNo=-


[+] M/I
General
Unique ID                   : 299129626898536717657991250807853706671 (0xE10A45440EC239DF70608D5623346DAF)
Complete name               : Сахара.(2005).BDRip-AVC.[JPN].O.M.[-=DoMiNo=-].mkv
Format                      : Matroska
Format version              : Version 4
File size                   : 2.90 GiB
Duration                    : 2 h 3 min
Overall bit rate            : 3 350 kb/s
Movie name                  : Сахара / Sahara (2005)
Encoded date                : UTC 2019-05-09 20:10:15
Writing application         : mkvmerge v33.1.0 ('Primrose') 64-bit
Writing library             : libebml v1.3.7 + libmatroska v1.5.0
Attachments                 : poster.jpg

Video
ID                          : 1
Format                      : AVC
Format/Info                 : Advanced Video Codec
Format profile              : High@L4.1
Format settings             : CABAC / 14 Ref Frames
Format settings, CABAC      : Yes
Format settings, Reference  : 14 frames
Codec ID                    : V_MPEG4/ISO/AVC
Duration                    : 2 h 3 min
Bit rate                    : 2 902 kb/s
Width                       : 1 024 pixels
Height                      : 576 pixels
Display aspect ratio        : 16:9
Frame rate mode             : Constant
Frame rate                  : 23.976 (24000/1001) FPS
Color space                 : YUV
Chroma subsampling          : 4:2:0
Bit depth                   : 8 bits
Scan type                   : Progressive
Bits/(Pixel*Frame)          : 0.205
Stream size                 : 2.51 GiB (87%)
Title                       : RIP_BY_-=DoMiNo=-   | Open Matte
Writing library             : x264 core 157 r2935 545de2f
Encoding settings           : cabac=1 / ref=14 / deblock=1:-3:-3 / analyse=0x3:0x133 / me=umh / subme=11 / psy=1 / psy_rd=1.05:0.15 / mixed_ref=1 / me_range=56 / chroma_me=1 / trellis=2 / 8x8dct=1 / cqm=0 / deadzone=21,11 / fast_pskip=0 / chroma_qp_offset=-3 / threads=6 / lookahead_threads=1 / sliced_threads=0 / nr=0 / decimate=0 / interlaced=0 / bluray_compat=0 / constrained_intra=0 / bframes=12 / b_pyramid=2 / b_adapt=2 / b_bias=0 / direct=3 / weightb=1 / open_gop=0 / weightp=2 / keyint=240 / keyint_min=24 / scenecut=40 / intra_refresh=0 / rc_lookahead=120 / rc=2pass / mbtree=1 / bitrate=2902 / ratetol=1.0 / qcomp=0.80 / qpmin=0 / qpmax=69 / qpstep=4 / cplxblur=20.0 / qblur=0.5 / ip_ratio=1.40 / aq=3:0.80
Language                    : Japanese
Default                     : Yes
Forced                      : No
Color range                 : Limited
Color primaries             : BT.709
Transfer characteristics    : BT.709
Matrix coefficients         : BT.709

Audio
ID                          : 2
Format                      : AC-3
Format/Info                 : Audio Coding 3
Commercial name             : Dolby Digital
Codec ID                    : A_AC3
Duration                    : 2 h 3 min
Bit rate mode               : Constant
Bit rate                    : 448 kb/s
Channel(s)                  : 6 channels
Channel layout              : L R C LFE Ls Rs
Sampling rate               : 48.0 kHz
Frame rate                  : 31.250 FPS (1536 SPF)
Bit depth                   : 16 bits
Compression mode            : Lossy
Stream size                 : 397 MiB (13%)
Title                       : DUB
Language                    : Russian
Service kind                : Complete Main
Default                     : Yes
Forced                      : No

Text #1
ID                          : 3
Format                      : UTF-8
Codec ID                    : S_TEXT/UTF8
Codec ID/Info               : UTF-8 Plain Text
Duration                    : 1 h 56 min
Bit rate                    : 82 b/s
Count of elements           : 1209
Stream size                 : 69.8 KiB (0%)
Title                       : full
Language                    : Russian
Default                     : No
Forced                      : No

Text #2
ID                          : 4
Format                      : UTF-8
Codec ID                    : S_TEXT/UTF8
Codec ID/Info               : UTF-8 Plain Text
Duration                    : 1 h 56 min
Bit rate                    : 82 b/s
Count of elements           : 1226
Stream size                 : 70.6 KiB (0%)
Title                       : full [tamerlan]
Language                    : Russian
Default                     : No
Forced                      : No

Text #3
ID                          : 5
Format                      : UTF-8
Codec ID                    : S_TEXT/UTF8
Codec ID/Info               : UTF-8 Plain Text
Duration                    : 1 h 56 min
Bit rate                    : 48 b/s
Count of elements           : 1204
Stream size                 : 41.4 KiB (0%)
Title                       : full
Language                    : English
Default                     : No
Forced                      : No

Menu
00:00:00.000                : :00:00:00.000
00:07:49.260                : :00:07:49.260
00:12:02.764                : :00:12:02.764
00:20:00.074                : :00:20:00.074
00:27:53.672                : :00:27:53.672
00:36:02.911                : :00:36:02.911
00:46:02.635                : :00:46:02.635
00:52:36.612                : :00:52:36.612
00:58:54.823                : :00:58:54.823
01:04:52.055                : :01:04:52.055
01:10:51.288                : :01:10:51.289
01:16:59.365                : :01:16:59.365
01:21:30.761                : :01:21:30.761
01:31:39.119                : :01:31:39.119
01:42:09.206                : :01:42:09.206
01:49:05.080                : :01:49:05.080
01:57:47.894                : :01:57:47.894



Скриншоты:
[+] Всего файлов в раздаче - 1:
Сахара.(2005).BDRip-AVC.[JPN].O.M.[-=DoMiNo=-].mkv2.90 GB

Показать еще раздачи по запросу сахара:
2017-08-27 U Сахара / Sahara (1995) WEB-DL 1080p | P, P2, A 2К8.42 GB ↑ 62 ↓ 17
2017-06-28 U Сахара / Sahara (2017) BDRip 720p | L 3.40 GB ↑ 162 ↓ 47
2017-06-28 U Сахара / Sahara (2017) BDRip 1080p | L 6.19 GB ↑ 84 ↓ 73
2017-06-28 U Сахара / Sahara (2017) HDRip | L 1.36 GB ↑ 375 ↓ 93
2017-06-26 U Сахара / Sahara (2017) WEBRip 720p | L 2.18 GB ↑ 41 ↓ 40
2017-06-26 U Сахара / Sahara (2017) WEBRip 1080p | L 2.62 GB ↑ 109 ↓ 48
2017-05-24 U Сахара / Sahara (2017) WEB-DLRip от ImperiaFilm | L 610.20 MB ↑ 787 ↓ 33

Отзывы
Зарегистрируйтесь чтобы добавить комментарий.
Обратная связь
Copyleft ©