↑↓Torrent.by
Поиск
Логин: Регистрация
Пароль: Восстановить пароль
Загрузка...

Мисс Пуля / Miss Bala (2019) BDRip-HEVC 1080p от Donatik | iTunes

Скачать miss-pulya-bala-2019-bdrip-hevc-1080p-ot-donatik-itunes.torrent
U Магнитная ссылка Размер: 3.51 GB Раздают: 63 Качают: 30 Добавлен: 2019-05-12 19:22:34
Мисс Пуля / Miss Bala (2019) BDRip-HEVC 1080p от Donatik | iTunes

Название: Мисс Пуля
Оригинальное название: Miss Bala
Год выхода: 2019
Жанр: Боевик, триллер, драма
Режиссер: Кэтрин Хардвик
В ролях: Джина Родригез, Энтони Маки, Исмаэль Круз, Мэтт Лауриа, Томас Деккер, Айслинн Дербес, Кристина Рольдо, Рикардо Абарка, Даниэла де ла Фе, Уилл Блэгроув

О фильме:
Участница конкурса красоты Глория становится свидетельницей жестокой бандитской расправы и попадает в руки харизматичного наркобарона. С помощью шантажа и угроз он использует отчаянную красавицу как пешку в своей игре против ЦРУ и УБН.

Страна: Мексика, США
Студия: Canana Films, Misher Films, Sony Pictures Entertainment
Продолжительность: 01:43:58
Перевод: Профессиональный многоголосый (iTunes)

Файл
Качество: BDRip-HEVC 1080p
Видео: HEVC/x.265, 1920x800, ~4000 Kbps
Аудио 1: AC3, 6 ch, 384 Kbps  Профессиональный многоголосый (iTunes)
Аудио 2: AC3, 6 ch, 448 Kbps  (Оригинал)

Релиз:
[+] Mediainfo

General
Unique ID                   : 225122838277150755629719266510874572332 (0xA95D14DFD3E9BF5A410D90D36817762C)
Complete name               : E:Miss Bala (2019) BDRip 1080p [HEVC] 10bit.mkv
Format                      : Matroska
Format version              : Version 4
File size                   : 3.51 GiB
Duration                    : 1 h 43 min
Overall bit rate            : 4 835 kb/s
Movie name                  : Мисс Пуля
Deion                 : Участница конкурса красоты Глория становится свидетельницей жестокой бандитской расправы и попадает в руки харизматичного наркобарона. С помощью шантажа и угроз он использует отчаянную красавицу как пешку в своей игре против ЦРУ и УБН.
Encoded date                : UTC 2019-05-11 12:19:47
Writing application         : mkvmerge v25.0.0 ('Prog Noir') 64-bit
Writing library             : libebml v1.3.6 + libmatroska v1.4.9 / Lavf57.71.100
Attachments                 : poster.jpg / backdrop.jpg
ACTORS                      : Gina Rodriguez, Ismael Cruz Córdova, Anthony Mackie, Cristina Rodlo, Aislinn Derbez, Damián Alcázar, Matt Lauria, Ricardo Abarca, Roberto Sosa, José Sefami
COUNTRY                     : Mexico, United States
DATE                        : 2019-02-01
DIRECTOR                    : Catherine Hardwicke
ENCODING_INFO               : MATROSKA,WEBM > MKV 1080p 10-bit / H264 > X265 CRF 17.5 Medium
GENRE                       : триллер, боевик, драма
HD_VIDEO                    : 1
ITUNEXTC                    : mpaa|PG-13|300|
Language                    : und
MEDIA_TYPE                  : 9
ORIGINAL_TITLE              : Miss Bala
PUBLISHER                   : Misher Films, Canana Films
RATING                      : 6.50

Video
ID                          : 1
Format                      : HEVC
Format/Info                 : High Efficiency Video Coding
Format profile              : Main 10@L4.1@High
Codec ID                    : V_MPEGH/ISO/HEVC
Duration                    : 1 h 43 min
Bit rate                    : 4 000 kb/s
Width                       : 1 920 pixels
Height                      : 800 pixels
Display aspect ratio        : 2.40:1
Frame rate mode             : Constant
Frame rate                  : 23.976 (24000/1001) FPS
Color space                 : YUV
Chroma subsampling          : 4:2:0
Bit depth                   : 10 bits
Bits/(Pixel*Frame)          : 0.109
Stream size                 : 2.91 GiB (83%)
Writing library             : x265 2.9+9-f74003e88622:[Windows][GCC 8.2.0][64 bit] 10bit
Encoding settings           : cpuid=1111039 / frame-threads=7 / numa-pools=6 / wpp / no-pmode / no-pme / no-psnr / no-ssim / log-level=3 / input-csp=1 / input-res=1920x800 / interlace=0 / total-frames=0 / level-idc=41 / high-tier=1 / uhd-bd=0 / ref=4 / allow-non-conformance / no-repeat-headers / annexb / no-aud / no-hrd / info / hash=0 / no-temporal-layers / open-gop / min-keyint=24 / keyint=240 / gop-lookahead=0 / bframes=12 / b-adapt=2 / b-pyramid / bframe-bias=0 / rc-lookahead=20 / lookahead-slices=5 / scenecut=40 / radl=0 / no-intra-refresh / ctu=64 / min-cu-size=8 / rect / amp / max-tu-size=32 / tu-inter-depth=1 / tu-intra-depth=1 / limit-tu=0 / rdoq-level=0 / dynamic-rd=0.00 / no-ssim-rd / signhide / no-tskip / nr-intra=0 / nr-inter=0 / no-constrained-intra / no-strong-intra-smoothing / max-merge=2 / limit-refs=3 / no-limit-modes / me=3 / subme=7 / merange=57 / temporal-mvp / weightp / no-weightb / no-analyze-src-pics / deblock=-3:-3 / no-sao / no-sao-non-deblock / rd=3 / no-early-skip / rskip / no-fast-intra / no-tskip-fast / no-cu-lossless / no-b-intra / no-splitrd-skip / rdpenalty=0 / psy-rd=2.00 / psy-rdoq=0.00 / no-rd-refine / no-lossless / cbqpoffs=0 / crqpoffs=0 / rc=crf / crf=17.5 / qcomp=0.70 / qpstep=4 / stats-write=0 / stats-read=0 / vbv-maxrate=50000 / vbv-bufsize=50000 / vbv-init=0.9 / crf-max=30.0 / crf-min=0.0 / ipratio=1.40 / pbratio=1.30 / aq-mode=1 / aq-strength=1.00 / cutree / zone-count=0 / no-strict-cbr / qg-size=32 / no-rc-grain / qpmax=69 / qpmin=0 / no-const-vbv / sar=1 / overscan=0 / videoformat=5 / range=0 / colorprim=1 / transfer=1 / colormatrix=1 / chromaloc=0 / display-window=0 / max-cll=0,0 / min-luma=0 / max-luma=1023 / log2-max-poc-lsb=8 / vui-timing-info / vui-hrd-info / slices=1 / no-opt-qp-pps / no-opt-ref-list-length-pps / no-multi-pass-opt-rps / scenecut-bias=0.05 / no-opt-cu-delta-qp / no-aq-motion / no-hdr / no-hdr-opt / no-dhdr10-opt / no-idr-recovery-sei / analysis-reuse-level=5 / scale-factor=0 / refine-intra=0 / refine-inter=0 / refine-mv=0 / no-limit-sao / ctu-info=0 / no-lowpass-dct / refine-mv-type=0 / copy-pic=1 / max-ausize-factor=1.0 / no-dynamic-refine / no-single-sei
Language                    : English
Default                     : Yes
Forced                      : No
Color range                 : Limited
Color primaries             : BT.709
Transfer characteristics    : BT.709
Matrix coefficients         : BT.709

Audio #1
ID                          : 2
Format                      : AC-3
Format/Info                 : Audio Coding 3
Commercial name             : Dolby Digital
Codec ID                    : A_AC3
Duration                    : 1 h 43 min
Bit rate mode               : Constant
Bit rate                    : 384 kb/s
Channel(s)                  : 6 channels
Channel layout              : L R C LFE Ls Rs
Sampling rate               : 48.0 kHz
Frame rate                  : 31.250 FPS (1536 SPF)
Bit depth                   : 16 bits
Compression mode            : Lossy
Stream size                 : 286 MiB (8%)
Language                    : Russian
Service kind                : Complete Main
Default                     : Yes
Forced                      : No

Audio #2
ID                          : 3
Format                      : AC-3
Format/Info                 : Audio Coding 3
Commercial name             : Dolby Digital
Codec ID                    : A_AC3
Duration                    : 1 h 43 min
Bit rate mode               : Constant
Bit rate                    : 448 kb/s
Channel(s)                  : 6 channels
Channel layout              : L R C LFE Ls Rs
Sampling rate               : 48.0 kHz
Frame rate                  : 31.250 FPS (1536 SPF)
Bit depth                   : 16 bits
Compression mode            : Lossy
Stream size                 : 333 MiB (9%)
Language                    : English
Service kind                : Complete Main
Default                     : No
Forced                      : No

Text #1
ID                          : 4
Format                      : UTF-8
Codec ID                    : S_TEXT/UTF8
Codec ID/Info               : UTF-8 Plain Text
Duration                    : 1 h 40 min
Bit rate                    : 0 b/s
Count of elements           : 2
Stream size                 : 118 Bytes (0%)
Title                       : Forced
Language                    : Russian
Default                     : Yes
Forced                      : Yes

Text #2
ID                          : 5
Format                      : UTF-8
Codec ID                    : S_TEXT/UTF8
Codec ID/Info               : UTF-8 Plain Text
Duration                    : 1 h 42 min
Bit rate                    : 54 b/s
Count of elements           : 972
Stream size                 : 40.6 KiB (0%)
Title                       : Full
Language                    : Russian
Default                     : No
Forced                      : No

Text #3
ID                          : 6
Format                      : UTF-8
Codec ID                    : S_TEXT/UTF8
Codec ID/Info               : UTF-8 Plain Text
Duration                    : 1 h 36 min
Bit rate                    : 35 b/s
Count of elements           : 951
Stream size                 : 24.9 KiB (0%)
Title                       : Full
Language                    : English
Default                     : No
Forced                      : No

Menu
00:00:00.000                : :Chapter 01
00:05:31.706                : :Chapter 02
00:12:15.777                : :Chapter 03
00:17:39.599                : :Chapter 04
00:24:00.439                : :Chapter 05
00:27:02.621                : :Chapter 06
00:35:19.034                : :Chapter 07
00:41:09.801                : :Chapter 08
00:46:20.236                : :Chapter 09
00:55:58.021                : :Chapter 10
00:59:22.768                : :Chapter 11
01:03:48.950                : :Chapter 12
01:09:17.944                : :Chapter 13
01:20:28.741                : :Chapter 14
01:25:28.373                : :Chapter 15
01:30:06.610                : :Chapter 16




Скриншоты:
[+] Всего файлов в раздаче - 1:
Miss Bala (2019) BDRip 1080p [HEVC] 10bit.mkv3.51 GB

Показать еще раздачи по запросу мисс:
2019-05-09 U Мисс Пуля / Miss Bala (2019) BDRip от ExKinoRay | P | iTunes 745.98 MB ↑ 72 ↓ 16
2019-05-09 U Мисс Пуля / Miss Bala (2019) BDRip-AVC от ExKinoRay | iTunes 2.64 GB ↑ 88 ↓ 18
2019-05-08 U Мисс Пуля / Miss Bala (2019) BDRemux 1080p от селезень | iTunes 19.99 GB ↑ 89 ↓ 69
2019-05-08 U Мисс Пуля / Miss Bala (2019) HDRip от Portablius | iTunes 746.63 MB ↑ 102 ↓ 46
2019-05-08 U Мисс Пуля / Miss Bala (2019) BDRip 1080p от селезень | iTunes 10.20 GB ↑ 134 ↓ 102
2019-05-08 U Мисс Пуля / Miss Bala (2019) BDRip от MegaPeer | iTunes 1.41 GB ↑ 168 ↓ 142
2019-05-08 U Мисс Пуля / Miss Bala (2019) BDRip 720p от селезень | iTunes 5.89 GB ↑ 201 ↓ 112

Отзывы
Зарегистрируйтесь чтобы добавить комментарий.
Обратная связь
Copyleft ©