↑↓Torrent.by
Поиск
Логин: Регистрация
Пароль: Восстановить пароль
Загрузка...

Стальная страна / Steel Country (2018) WEB-DLRip-AVC от ExKinoRay | HDRezka Studio

Скачать stalnaya-strana-steel-country-2018-web-dlrip-avc-ot-exkinoray-hdrezka-studio.torrent
U Магнитная ссылка Размер: 744.08 MB Раздают: 58 Качают: 17 Добавлен: 2019-05-12 19:22:38
Стальная страна / Steel Country (2018) WEB-DLRip-AVC от ExKinoRay | HDRezka Studio

Название: Стальная страна
Оригинальное название: Steel Country (A Dark Place)
Год выпуска: 2018
Жанр:  Триллер, детектив
Режиссер: Саймон Феллоуз
В ролях: Эндрю Скотт, Денис Гоф, Дж.Д. Эвермор, Катрин Дайер, Брона Во, Грифф Ферст, Сандра Эллис Лэфферти, Кристиан Финлейсон, Джаред Банкенс, Кори Скотт Аллен

О фильме:
Когда мальчик пропадает без вести на окраине сонного городка в штатах, местный мусорщик Дональд решает разобраться с этим делом сам. Работая над этим он сталкивается с враждебностью со стороны полицейских и всех остальных, когда начинает задавать неудобные вопросы об обстоятельствах жизни мертвого ребенка. Донни совсем не умный и не хитрый, поэтому сразу весь город - и скорбящие родители - узнают, о том, что он ищет правду. Вскоре враждебность превращается в прямые угрозы, которые только усиливают его подозрение, что в этом инциденте есть какая-то скрытая, мрачная правда.

Выпущено: Великобритания, Bedlam Productions
Продолжительность: 01:29:38
Перевод: Профессиональный (многоголосый, закадровый) | HDRezka Studio

Файл
Формат: MKV
Качество: WEB-DLRip-AVC
Видео: MPEG-4 AVC, 784x328, - 1085 Кбит/с
Аудио:  AAC-HE, 2 ch, - 76 Кбит/с
Субтитры: Нет


[+] MI
Общее
Уникальный идентификатор : 34007432237875288119254698172491375754 (0x199597DC787942F73C648C0AC6C6248A)
Полное имя : D:MOVIESA.Dark.Place.2018.ExKinoRay.mkv
Формат : Matroska
Версия формата : Version 4 / Version 2
Размер файла : 744 Мбайт
Продолжительность : 1 ч. 29 м.
Общий поток : 1161 Кбит/сек
Дата кодирования : UTC 2019-05-12 04:41:33
Программа кодирования : mkvmerge v32.0.0 ('Astral Progressions') 64-bit
Библиотека кодирования : libebml v1.3.7 + libmatroska v1.5.0

Видео
Идентификатор : 1
Формат : AVC
Формат/Информация : Advanced Video Codec
Профиль формата : High@L4.1
Параметр CABAC формата : Да
Параметр RefFrames формата : 12 кадров
Идентификатор кодека : V_MPEG4/ISO/AVC
Продолжительность : 1 ч. 29 м.
Битрейт : 1085 Кбит/сек
Ширина : 784 пикселя
Высота : 328 пикселей
Соотношение сторон : 2,40:1
Режим частоты кадров : Постоянный
Частота кадров : 23,976 (24000/1001) кадра/сек
Цветовое пространство : YUV
Субдискретизация насыщенности : 4:2:0
Битовая глубина : 8 бит
Тип развёртки : Прогрессивная
Бит/(Пиксели*Кадры) : 0.176
Размер потока : 694 Мбайт (93%)
Библиотека кодирования : x264 core 152 r2851 ba24899
Настройки программы : cabac=1 / ref=12 / deblock=1:-3:-3 / analyse=0x3:0x133 / me=umh / subme=11 / psy=1 / psy_rd=1.00:0.14 / mixed_ref=1 / me_range=32 / chroma_me=1 / trellis=2 / 8x8dct=1 / cqm=0 / deadzone=21,11 / fast_pskip=0 / chroma_qp_offset=-3 / threads=6 / lookahead_threads=1 / sliced_threads=0 / nr=0 / decimate=0 / interlaced=0 / bluray_compat=0 / constrained_intra=0 / bframes=12 / b_pyramid=2 / b_adapt=2 / b_bias=0 / direct=3 / weightb=1 / open_gop=0 / weightp=2 / keyint=240 / keyint_min=23 / scenecut=40 / intra_refresh=0 / rc=2pass / mbtree=0 / bitrate=1085 / ratetol=1.0 / qcomp=0.60 / qpmin=0 / qpmax=69 / qpstep=4 / cplxblur=20.0 / qblur=0.5 / ip_ratio=1.40 / pb_ratio=1.30 / aq=1:1.00
Default : Да
Forced : Нет

Аудио
Идентификатор : 2
Формат : AAC
Формат/Информация : Advanced Audio Codec
Профиль формата : HE-AAC / LC
Идентификатор кодека : A_AAC
Продолжительность : 1 ч. 29 м.
Битрейт : 76,0 Кбит/сек
Каналы : 2 канала
Расположение каналов : Front: L R
Частота : 48,0 КГц / 24,0 КГц
Частота кадров : 23,438 кадра/сек (1024 SPF)
Метод сжатия : С потерями
Задержка видео : 31 мс.
Размер потока : 48,7 Мбайт (7%)
Default : Да
Forced : Нет

Меню
00:00:00.000 : en:1
00:10:23.665 : en:2
00:19:45.226 : en:3
00:30:52.768 : en:4
00:38:53.915 : en:5
00:49:20.166 : en:6
00:58:21.999 : en:7
01:07:35.677 : en:8
01:14:24.001 : en:9
01:25:37.215 : en:10



Скриншоты:
[+] Всего файлов в раздаче - 1:
A.Dark.Place.2018.ExKinoRay.mkv744.08 MB

Показать еще раздачи по запросу стальная:
2019-05-17 U Стальная страна / Steel Country (2018) WEB-DLRip от Portablius | HDRezka Studio 745.74 MB ↑ 27 ↓ 4
2019-05-11 U Стальная страна / Steel Country (2018) WEB-DL 1080p от ExKinoRay | HDRezka Studio 3.28 GB ↑ 91 ↓ 64
2019-05-11 U Стальная страна / Steel Country (2018) WEB-DLRip от ExKinoRay | HDRezka Studio 1.35 GB ↑ 125 ↓ 40
2017-10-04 U Стальная звезда / Tin Star [S01] (2017) HDTVRip | IdeaFilm 6.14 GB ↑ 57 ↓ 39
2017-09-19 U Стальная звезда / Tin Star [01x01-02 из 10] (2017) HDTV 720p | Amedia 2К1.95 GB ↑ 67 ↓ 17
2017-09-12 U Стальная звезда / Tin Star [01x01 из 10] (2017) HDTVRip | IdeaFilm 551.62 MB ↑ 48 ↓ 2
2017-09-11 U Стальная звезда / Tin Star [01x01 из 10] (2017) HDTVRip 720p | IdeaFilm 1.41 GB ↑ 114 ↓ 46

Отзывы
Зарегистрируйтесь чтобы добавить комментарий.
Обратная связь
Copyleft ©