↑↓Torrent.by
Поиск
Логин: Регистрация
Пароль: Восстановить пароль
Загрузка...

КВН-2019. Высшая лига. 1/4 финала. Игра вторая [12.05] (2019) HDTVRip от GeneralFilm

Скачать kvn-2019-vysshaya-liga-1-4-finala-igra-vtoraya-12-05-hdtvrip-ot-generalfilm.torrent
U Магнитная ссылка Размер: 1.53 GB Раздают: 148 Качают: 54 Добавлен: 2019-05-13 05:32:32
КВН-2019. Высшая лига. 1/4 финала. Игра вторая  [12.05] (2019) HDTVRip от GeneralFilm

Год выпуска: 2019
Жанр:  Юмор
Выпущено: Россия, АМИК, Первый канал
Ведущий: Александр Масляков

О фильме: Что такое КВН - знают, без сомнения, все. В КВН играют во всем мире, это прежде всего молодежная игра. Постоянные конкурсные задания - "Визитная карточка", "Разминка", "Конкурс капитанов", "Музыкальный конкурс", "Домашнее задание". Игру команд оценивает профессиональное жюри - люди, у которых с чувством юмора все в порядке, многие из них раньше сами играли в КВН. Среди членов жюри были Константин Эрнст, Леонид Парфенов, Юлий Гусман, Леонид Ярмольник, Валдис Пельш, Сергей Шолохов, Геннадий Хазанов и другие. Кроме самих игр проводятся ежегодные встречи: фестиваль команд КВН (с 1990 г., семь раз фестиваль проходил в г.Сочи), музыкальный фестиваль КВН, летний кубок КВН, международные товарищеские игры в КВН. Сборная КВН играет со сборными других стран. Уже состоялись игры между сборной КВН и сборными Америки, Австралии, Израиля... Игра в КВН для многих становится профессией, а многие благодаря игре связывают жизнь с искусством. Из КВН "вышли": Леонид Якубович, Михаил Марфин, Татьяна Лазарева, Олег Филимонов, Юлий Гусман и многие другие.

Качество: HDTVRip
Видео: XviD, 1784 Кбит/с, 720x400, 25 кадр/с
Аудио: Русский (AC3, 2 ch, 192 Кбит/с)
Продолжительность: 01:49:53
Перевод: Не требуется
Субтитры: нет

Релиз:
[+] MediaInfo

Общее
Полное имя                               : D:KVN-2019. Vysshaja liga.1.4 finala. Igra vtoraja.HDTVRip.GeneralFilm.avi
Формат                                   : AVI
Формат/Информация                        : Audio Video Interleave
Размер файла                             : 1,53 Гбайт
Продолжительность                        : 1 ч. 49 м.
Общий поток                              : 1987 Кбит/сек

Видео
Идентификатор                            : 0
Формат                                   : MPEG-4 Visual
Профиль формата                          : Advanced Simple@L5
Параметр BVOP формата                    : 1
Параметр QPel формата                    : Нет
Параметр GMC формата                     : Без точки перехода
Параметр матрицы формата                 : Выборочная
Идентификатор кодека                     : XVID
Идентификатор кодека/Подсказка           : XviD
Продолжительность                        : 1 ч. 49 м.
Битрейт                                  : 1784 Кбит/сек
Ширина                                   : 720 пикселей
Высота                                   : 400 пикселей
Соотношение сторон                       : 16:9
Частота кадров                           : 25,000 кадров/сек
Цветовое пространство                    : YUV
Субдискретизация насыщенности            : 4:2:0
Битовая глубина                          : 8 бит
Тип развёртки                            : Прогрессивная
Метод сжатия                             : С потерями
Бит/(Пиксели*Кадры)                      : 0.248
Размер потока                            : 1,37 Гбайт (90%)
Библиотека кодирования                   : XviD 1.2.1 (UTC 2008-12-04)

Аудио
Идентификатор                            : 1
Формат                                   : AC-3
Формат/Информация                        : Audio Coding 3
Расширение режима                        : CM (complete main)
Параметр Endianness формата              : Big
Идентификатор кодека                     : 2000
Продолжительность                        : 1 ч. 49 м.
Вид битрейта                             : Постоянный
Битрейт                                  : 192 Кбит/сек
Каналы                                   : 2 канала
Расположение каналов                     : Front: L R
Частота                                  : 48,0 КГц
Частота кадров                           : 31,250 кадров/сек (1536 spf)
Битовая глубина                          : 16 бит
Метод сжатия                             : С потерями
Размер потока                            : 151 Мбайт (10%)
Выравнивание                             : Соединение по промежуткам
Продолжительность промежутка             : 32  мс. (0,80 видеокадр)




[+] Команды

«Борцы» (Сургут)
Сборная Забайкальского края (Чита)
«Планета Сочи» (Сочи)
«Умные люди» (Рязань)
«Такая история» (Орёл).



[+] Жюри

Константин Эрнст, Вячеслав Муругов, Дмитрий Нагиев, Валдис Пельш, Юлий Гусман.



Скриншоты:
[+] Всего файлов в раздаче - 1:
KVN-2019. Vysshaja liga.1.4 finala. Igra vtoraja.HDTVRip.GeneralFilm.avi1.53 GB

Показать еще раздачи по запросу высшая:
2019-05-13 U КВН-2019. Высшая лига. 1/4 финала. Игра вторая [12.05] (2019) HDTV 1080i от GeneralFilm 8.99 GB ↑ 108 ↓ 26
2019-05-12 U КВН-2019. Высшая лига. 1/4 финала. Игра вторая [12.05] (2019) SATRip 1.46 GB ↑ 1000 ↓ 408
2019-05-03 U КВН-2019. Высшая лига. 1/4 финала. Игра первая [28.04] (2019) WEBRip 720p 3.31 GB ↑ 271 ↓ 184
2019-04-02 U КВН-2019. Высшая лига. 1/8 финала. Игра четвертая [31.03] (2019) WEBRip 1080p 3.32 GB ↑ 336 ↓ 84
2019-03-18 U КВН-2019. Высшая лига. 1/8 финала. Игра Третья [17.03] (2019) DVB 2.10 GB ↑ 437 ↓ 100
2019-03-04 U КВН-2019. Высшая лига. 1/8 финала. Игра вторая [03.03] (2019) HDTV 1080i от GeneralFilm 8.06 GB ↑ 128 ↓ 54
2019-03-04 U КВН-2019. Высшая лига. 1/8 финала. Игра Вторая [03.03] (2019) DVB 2.24 GB ↑ 285 ↓ 39

Отзывы
Зарегистрируйтесь чтобы добавить комментарий.
Обратная связь
Copyleft ©