↑↓Torrent.by
Поиск
Логин: Регистрация
Пароль: Восстановить пароль
Загрузка...

Дикая молодость / Savage Youth (2018) WEB-DL 1080p | HDRezka Studio

Скачать dikaya-molodost-savage-youth-2018-web-dl-1080p-hdrezka-studio.torrent
U Магнитная ссылка Размер: 4.01 GB Раздают: 65 Качают: 23 Добавлен: 2019-05-13 05:32:56
Дикая молодость / Savage Youth (2018) WEB-DL 1080p | HDRezka Studio

Название: Дикая молодость
Оригинальное название: Savage Youth
Год выпуска: 2018
Жанр:  Драма, криминал
Режиссер: Майкл Кертис Джонсон
В ролях: Грэйс Виктория Кокс, Текуан Ричмонд, Уилл Бриттейн, Хлоя Ливайн, Саша Фельдман, Митчелл Эдвардс, Джонатан Майкл Траутмэнн, Томас Пэйс, Жавун Бэйкер, Качи Анткович

О фильме: История о группе подростков, оказавшихся в ситуации, когда саморазрушение становится единственным способом существования. Елена – приличная девушка, которая решила связать свою судьбу с рэпером Джейсеном, продающим наркотики и ведущим разгульный образ жизни. Гейб и Майк – простые парни из гетто, где преступная деятельность является основным средством заработка. Главных героев объединяет то, что их жизни стремительно несутся под откос, однако вскоре им предстоит осознать свои ошибки и принять непростые решения.

Выпущено: США, Hiventure Media Sa
Продолжительность: 01:39:04
Перевод: Профессиональный (многоголосый, закадровый) | HDRezka Studio

Файл
Качество: WEB-DL 1080p
Контейнер: MKV
Видео: MPEG-4 AVC, 5216 Кбит/с, 1920x1080
Аудио 1: Русский: AC3, 2 ch, 192 Кбит/с - HDRezka Studio
Аудио 2: Английский: AC3, 6 ch, 384 Кбит/с - Original
Субтитры: Английские


[+] MediaInfo
General
Unique ID                                : 81634535253520589882207018419141915156 (0x3D6A3D5609C8E4D7895EBF9FC392B214)
Complete name                            : G:Savage.Youth.2018.WEB-DL.1080p.mkv
Format                                   : Matroska
Format version                           : Version 4 / Version 2
File size                                : 4.01 GiB
Duration                                 : 1 h 39 min
Overall bit rate                         : 5 794 kb/s
Encoded date                             : UTC 2019-05-12 02:19:23
Writing application                      : mkvmerge v20.0.0 ('I Am The Sun') 64-bit
Writing library                          : libebml v1.3.5 + libmatroska v1.4.8

Video
ID                                       : 1
Format                                   : AVC
Format/Info                              : Advanced Video Codec
Format profile                           : High@L4
Format settings                          : CABAC / 4 Ref Frames
Format settings, CABAC                   : Yes
Format settings, RefFrames               : 4 frames
Codec ID                                 : V_MPEG4/ISO/AVC
Duration                                 : 1 h 39 min
Bit rate                                 : 5 216 kb/s
Width                                    : 1 920 pixels
Height                                   : 1 080 pixels
Display aspect ratio                     : 16:9
Frame rate mode                          : Constant
Frame rate                               : 23.976 (24000/1001) FPS
Color space                              : YUV
Chroma subsampling                       : 4:2:0
Bit depth                                : 8 bits
Scan type                                : Progressive
Bits/(Pixel*Frame)                       : 0.105
Stream size                              : 3.61 GiB (90%)
Language                                 : English
Default                                  : Yes
Forced                                   : No
Color range                              : Limited
Color primaries                          : BT.709
Transfer characteristics                 : BT.709
Matrix coefficients                      : BT.709

Audio #1
ID                                       : 2
Format                                   : AC-3
Format/Info                              : Audio Coding 3
Codec ID                                 : A_AC3
Duration                                 : 1 h 39 min
Bit rate mode                            : Constant
Bit rate                                 : 192 kb/s
Channel(s)                               : 2 channels
Channel positions                        : Front: L R
Sampling rate                            : 48.0 kHz
Frame rate                               : 31.250 FPS (1536 SPF)
Bit depth                                : 16 bits
Compression mode                         : Lossy
Stream size                              : 136 MiB (3%)
Title                                    : MVO, HDRezka Studio
Language                                 : Russian
Service kind                             : Complete Main
Default                                  : Yes
Forced                                   : No

Audio #2
ID                                       : 3
Format                                   : AC-3
Format/Info                              : Audio Coding 3
Codec ID                                 : A_AC3
Duration                                 : 1 h 39 min
Bit rate mode                            : Constant
Bit rate                                 : 384 kb/s
Channel(s)                               : 6 channels
Channel positions                        : Front: L C R, Side: L R, LFE
Sampling rate                            : 48.0 kHz
Frame rate                               : 31.250 FPS (1536 SPF)
Bit depth                                : 16 bits
Compression mode                         : Lossy
Stream size                              : 272 MiB (7%)
Language                                 : English
Service kind                             : Complete Main
Default                                  : No
Forced                                   : No

Text
ID                                       : 4
Format                                   : UTF-8
Codec ID                                 : S_TEXT/UTF8
Codec ID/Info                            : UTF-8 Plain Text
Duration                                 : 1 h 38 min
Bit rate                                 : 77 b/s
Count of elements                        : 1396
Stream size                              : 55.7 KiB (0%)
Language                                 : English
Default                                  : No
Forced                                   : No

Menu
00:00:00.000                             : en:1
00:15:00.000                             : en:2
00:30:00.000                             : en:3
00:45:00.000                             : en:4
01:00:00.000                             : en:5
01:15:00.000                             : en:6
01:30:00.000                             : en:7



Скриншоты:
[+] Всего файлов в раздаче - 1:
Savage.Youth.2018.WEB-DL.1080p.mkv4.01 GB

Показать еще раздачи по запросу дикая:
2019-03-22 U Ведьмак 3: Дикая Охота / The Witcher 3: Wild Hunt - Game of the Year Edition [v 1.31 + 18 DLC] (2015) PC | Repack от xatab 27.93 GB ↑ 299 ↓ 343
2019-03-16 U Дикая жизнь / Wildlife (2018) BDRip 1080p от селезень | iTunes 8.08 GB ↑ 57 ↓ 16
2019-03-15 U Дикая жизнь / Wildlife (2018) BDRip от MegaPeer | iTunes 1.41 GB ↑ 102 ↓ 8
2019-02-05 U Дикая жизнь / Wildlife (2018) WEB-DLRip от MegaPeer | iTunes 1.46 GB ↑ 81 ↓ 18
2019-02-04 U Дикая жизнь / Wildlife (2018) WEB-DL 1080p | iTunes 4.32 GB ↑ 529 ↓ 182
2019-02-04 U Дикая жизнь / Wildlife (2018) WEB-DLRip от Dalemake | iTunes 1.42 GB ↑ 502 ↓ 133
2019-01-18 U Дикая жизнь / Wildlife (2018) WEBRip | L2 1.43 GB ↑ 162 ↓ 17

Отзывы
Зарегистрируйтесь чтобы добавить комментарий.
Обратная связь
Copyleft ©