↑↓Torrent.by
Поиск
Логин: Регистрация
Пароль: Восстановить пароль
Загрузка...

Прыжок Богомола [01-02 из 02] (2019) HDTVRip от Portablius

Скачать pryzhok-bogomola-01-02-iz-2019-hdtvrip-ot-portablius.torrent
U Магнитная ссылка Размер: 1.46 GB Раздают: 50 Качают: 14 Добавлен: 2019-05-13 05:33:28
Прыжок Богомола [01-02 из 02] (2019) HDTVRip от Portablius

Название: Прыжок Богомола
Год выхода: 2019
Жанр: Военный, детектив, криминал
Режиссер: Владимир Балкашинов
В ролях: Павел Чинарёв, Татьяна Лялина, Александра Никифорова, Яков Шамшин, Сергей Степанченко, Виктор Супрун, Анатолий Лобоцкий, Дмитрий Брауэр, Владимир Капустин, Иван Лапин, Сергей Сосновский, Евгений Шириков, Владимир Терещенко, Константин Новиков, Алексей Ошурков, Александр Катин (старший), Дмитрий Родонов, Илья Семёнов, Виктор Немец, Роман Синицын, Игорь Поселенов, Вячеслав Морозов, Илья Беляев, Александр Никольский, Александр Кузнецов (XVI), Игорь Трафлялин

О фильме: 1942 год. Управление особых отделов НКВД начинает операцию по выявлению агентов, заброшенных на советскую территорию из разведцентра абвера. По заданию командования офицер НКВД разведчик Константин Богомолов под маской уголовника проникает в разведцентр и становится там лучшим курсантом. Постоянные проверки и провокации зачастую ставят Богомолова на грань провала. И вот, когда успех уже близок, и личные дела шпионов уже почти в руках, гитлеровцы забрасывают Богомолова, уже как своего агента, на советскую территорию. Руководство НКВД считает, что Богомолов перевербован, и арестовывает Богомолова и его командира — майора НКВД Маркелова. В последний момент Богомолов бежит. Теперь уже только он сам, в одиночку, без поддержки Большой Земли, должен выполнить задание и тем самым обелить себя и своего командира.

Страна: Россия
Студия: Кинокомпания «ГРИФОН», Кинокомпания «Калейдоскоп фильм»
Продолжительность: 2 х ~ 01:30:00
Перевод: Не требуется
Субтитры: нет

Файл
Кодек: XviD
Качество: HDTVRip
Видео: 720x304 (2.37:1), 25 fps, XviD build 73 ~1035 kbps avg, 0.19 bit/pixel
Звук: 48 kHz, MPEG Layer 3, 2 ch, ~128.00 kbps avg


[+] MediaInfo
General
Complete name               : 01.Pryzhok.Bogomola.2019.HDTVRip.Portablius.avi
Format                      : AVI
Format/Info                 : Audio Video Interleave
File size                   : 746 MiB
Duration                    : 1 h 28 min
Overall bit rate            : 1 174 kb/s
Writing application         : VirtualDubMod 1.5.10.3 | www.virtualdub-fr.org || (build 2550/release)
Writing library             : VirtualDubMod build 2550/release

Video
ID                          : 0
Format                      : MPEG-4 Visual
Format profile              : Advanced Simple@L5
Format settings             : BVOP1 / Custom Matrix
Format settings, BVOP       : 1
Format settings, QPel       : No
Format settings, GMC        : No warppoints
Format settings, Matrix     : Custom
Codec ID                    : XVID
Codec ID/Hint               : XviD
Duration                    : 1 h 28 min
Bit rate                    : 1 036 kb/s
Width                       : 720 pixels
Height                      : 304 pixels
Display aspect ratio        : 2.35:1
Frame rate                  : 25.000 FPS
Color space                 : YUV
Chroma subsampling          : 4:2:0
Bit depth                   : 8 bits
Scan type                   : Progressive
Compression mode            : Lossy
Bits/(Pixel*Frame)          : 0.189
Stream size                 : 658 MiB (88%)
Writing library             : XviD 73

Audio
ID                          : 1
Format                      : MPEG Audio
Format version              : Version 1
Format profile              : Layer 3
Codec ID                    : 55
Codec ID/Hint               : MP3
Duration                    : 1 h 28 min
Bit rate mode               : Constant
Bit rate                    : 128 kb/s
Channel(s)                  : 2 channels
Sampling rate               : 48.0 kHz
Frame rate                  : 41.667 FPS (1152 SPF)
Compression mode            : Lossy
Stream size                 : 81.4 MiB (11%)
Alignment                   : Aligned on interleaves
Interleave, duration        : 40  ms (1.00 video frame)
Interleave, preload duratio : 504  ms
Writing library             : LAME3.99r
Encoding settings           : -m s -V 4 -q 2 -lowpass 17 -b 128




Скриншоты:
[+] Всего файлов в раздаче - 2:
01.Pryzhok.Bogomola.2019.HDTVRip.Portablius.avi745.87 MB
02.Pryzhok.Bogomola.2019.HDTVRip.Portablius.avi746.05 MB

Показать еще раздачи по запросу прыжок:
2019-05-11 U Прыжок Богомола [01-02 из 02] (2019) HDTVRip от Generalfilm | КПК 681.46 MB ↑ 69 ↓ 25
2019-05-11 U Прыжок Богомола [01-02 из 02] (2019) HDTV 1080i 9.56 GB ↑ 58 ↓ 37
2019-05-11 U Прыжок Богомола [01-02 из 02] (2019) HDTVRip-AVC 1.37 GB ↑ 58 ↓ 24
2019-05-10 U Прыжок Богомола [01-02 из 02] (2019) HDTVRip от Files-x 2.25 GB ↑ 152 ↓ 70
2019-05-10 U Прыжок Богомола [01-02 из 02] (2019) HDTVRip-AVC от Files-x 2.74 GB ↑ 208 ↓ 84
2019-05-10 U Прыжок Богомола [01-02 из 02] (2019) HDTVRip 720p от ExKinoRay 5.24 GB ↑ 197 ↓ 119
2019-05-10 U Прыжок Богомола [01-02 из 02] (2019) HDTVRip от GeneralFilm 2.18 GB ↑ 236 ↓ 178

Отзывы
Зарегистрируйтесь чтобы добавить комментарий.
Обратная связь
Copyleft ©