↑↓Torrent.by
Поиск
Логин: Регистрация
Пароль: Восстановить пароль
Загрузка...

Паприка / Paprika (1991) BDRip-AVC от ExKinoRay | P2

Скачать paprika-1991-bdrip-avc-ot-exkinoray-p2.torrent
U Магнитная ссылка Размер: 745.75 MB Раздают: 45 Качают: 12 Добавлен: 2019-05-13 05:33:33
Паприка / Paprika (1991) BDRip-AVC от ExKinoRay | P2

Название: Паприка
Оригинальное название: Paprika
Год выхода: 1991
Жанр:  Драма, эротика
Режиссер: Тинто Брасс
В ролях: Дебора Каприольо, Стефан Феррара, Мартина Брошар, Стефан Бонне, Ренцо Ринальди, Лючиана Чиренеи, Джон Стейнер, Риккардо Гарроне, Осириде Певарелло, Элизабет Каза, Милли Коринальди, Клотильде Де Спирито, Алессандра Бонаротта, Джанни Демартиис, Андреа Аурели, Домициано Арканджели, Эоло Капритти, Карла Соларо, Лука Лионелло, Маурицио Ромоли, Нина Сольдано, Клара Альгранти, Валентине Деми, Луиджи Лаэцца, Кларита Гатто, Мария Кристина Мастранжели, Роберта Сарацци, Россана Гавинель, Дебора Вернетти

О фильме:
Мыльная опера о трудовом пути и личной жизни проститутки по прозвищу Паприка. Она приехала в Милан из провинции. Ее жених Рокко помог ей поступить на работу в публичный дом. Впрочем, при таких роскошных формах и покладистом характере эту 18-летнюю девушку, взяли бы в любом случае. Стараясь поскорее скопить денег на свадьбу, Паприка с воодушевлением становится на трудовую вахту. И надо сказать, что, за исключением некоторых неприятных моментов, ей это дело по душе...

Страна: Италия
Студия: Adriana Chiesa Enterprises
Продолжительность: 01:55:51
Перевод: Профессиональный (двухголосый, закадровый)

Файл
Формат: MKV
Качество: BDRip-AVC (BDRemux 1080p)
Видео: MPEG-4 AVC, 736x440, - 822 Кбит/с
Аудио:  AAC-HE, 2 ch, - 76 Кбит/с
Субтитры: Русские, английские


[+] MI
Общее
Уникальный идентификатор : 274655180832449854856383592813624880178 (0xCEA0A9E933B874D9AEB50F9273A0EC32)
Полное имя : D:MOVIESPaprika_1991.ExKinoRay.mkv
Формат : Matroska
Версия формата : Version 4 / Version 2
Размер файла : 746 Мбайт
Продолжительность : 1 ч. 55 м.
Общий поток : 900 Кбит/сек
Дата кодирования : UTC 2019-05-12 15:04:36
Программа кодирования : mkvmerge v32.0.0 ('Astral Progressions') 64-bit
Библиотека кодирования : libebml v1.3.7 + libmatroska v1.5.0

Видео
Идентификатор : 1
Формат : AVC
Формат/Информация : Advanced Video Codec
Профиль формата : High@L4.1
Параметр CABAC формата : Да
Параметр RefFrames формата : 12 кадров
Идентификатор кодека : V_MPEG4/ISO/AVC
Продолжительность : 1 ч. 55 м.
Битрейт : 822 Кбит/сек
Ширина : 736 пикселей
Высота : 440 пикселей
Соотношение сторон : 5:3
Режим частоты кадров : Постоянный
Частота кадров : 23,976 (24000/1001) кадра/сек
Цветовое пространство : YUV
Субдискретизация насыщенности : 4:2:0
Битовая глубина : 8 бит
Тип развёртки : Прогрессивная
Бит/(Пиксели*Кадры) : 0.106
Размер потока : 681 Мбайт (91%)
Библиотека кодирования : x264 core 152 r2851 ba24899
Настройки программы : cabac=1 / ref=12 / deblock=1:-3:-3 / analyse=0x3:0x133 / me=umh / subme=11 / psy=1 / psy_rd=1.00:0.12 / mixed_ref=1 / me_range=32 / chroma_me=1 / trellis=2 / 8x8dct=1 / cqm=0 / deadzone=21,11 / fast_pskip=0 / chroma_qp_offset=-3 / threads=6 / lookahead_threads=1 / sliced_threads=0 / nr=0 / decimate=0 / interlaced=0 / bluray_compat=0 / constrained_intra=0 / bframes=12 / b_pyramid=2 / b_adapt=2 / b_bias=0 / direct=3 / weightb=1 / open_gop=0 / weightp=2 / keyint=240 / keyint_min=23 / scenecut=40 / intra_refresh=0 / rc=2pass / mbtree=0 / bitrate=822 / ratetol=1.0 / qcomp=0.60 / qpmin=0 / qpmax=69 / qpstep=4 / cplxblur=20.0 / qblur=0.5 / ip_ratio=1.40 / pb_ratio=1.30 / aq=1:1.00
Default : Да
Forced : Нет

Аудио
Идентификатор : 2
Формат : AAC
Формат/Информация : Advanced Audio Codec
Профиль формата : HE-AAC / LC
Идентификатор кодека : A_AAC
Продолжительность : 1 ч. 55 м.
Битрейт : 76,0 Кбит/сек
Каналы : 2 канала
Расположение каналов : Front: L R
Частота : 48,0 КГц / 24,0 КГц
Частота кадров : 23,438 кадра/сек (1024 SPF)
Метод сжатия : С потерями
Задержка видео : 31 мс.
Размер потока : 63,0 Мбайт (8%)
Default : Да
Forced : Нет

Текст #1
Идентификатор : 3
Формат : UTF-8
Идентификатор кодека : S_TEXT/UTF8
Идентификатор кодека/Информация : UTF-8 Plain Text
Продолжительность : 1 ч. 54 м.
Битрейт : 77 бит/сек
ElementCount : 946
Размер потока : 64,7 Кбайт (0%)
Язык : Russian
Default : Нет
Forced : Нет

Текст #2
Идентификатор : 4
Формат : UTF-8
Идентификатор кодека : S_TEXT/UTF8
Идентификатор кодека/Информация : UTF-8 Plain Text
Продолжительность : 1 ч. 53 м.
Битрейт : 39 бит/сек
ElementCount : 1065
Размер потока : 32,7 Кбайт (0%)
Язык : English
Default : Нет
Forced : Нет

Меню
00:00:00.000 : en:00:00:00.000
00:11:48.249 : en:00:11:48.249
00:18:56.177 : en:00:18:56.177
00:27:10.087 : en:00:27:10.087
00:38:14.667 : en:00:38:14.667
00:51:11.485 : en:00:51:11.485
00:58:07.275 : en:00:58:07.275
01:09:22.116 : en:01:09:22.116
01:18:22.823 : en:01:18:22.823
01:29:18.770 : en:01:29:18.770
01:40:59.512 : en:01:40:59.512
01:53:43.316 : en:01:53:43.316



Скриншоты:
[+] Всего файлов в раздаче - 1:
Paprika_1991.ExKinoRay.mkv745.75 MB

Похожие раздачи по запросу - паприка:
2016-05-18 U Паприка / Paprika (1991) BDRip 1080p | P2 9.02 GB ↑ 36 ↓ 31
2016-05-03 U Паприка / Paprika (1991) BDRip 720p | P2 8.68 GB ↑ 65 ↓ 72

Отзывы
Зарегистрируйтесь чтобы добавить комментарий.
Обратная связь
Copyleft ©