↑↓Torrent.by
Поиск
Логин: Регистрация
Пароль: Восстановить пароль
Загрузка...

Соленая карамель [01-04 из 04] (2019) WEBRip от GeneralFilm

Скачать solenaya-karamel-01-04-iz-2019-webrip-ot-generalfilm.torrent
U Магнитная ссылка Размер: 2.18 GB Раздают: 37 Качают: 27 Добавлен: 2019-05-13 05:34:07
Соленая карамель [01-04 из 04] (2019) WEBRip от GeneralFilm

Оригинальное название: Соленая карамель
Год выпуска: 2019
Жанр:  Мелодрама
Выпущено: Украина, «Фильмстрим», «Vileton Films»
Режиссер: Андрей Силкин
В ролях: Мария Машкова, Виктор Васильев (III), Александр Пашков, Светлана Степанковская, Павел Алдошин (II), Дмитрий Сарансков, Юлия Мотрук, Вячеслав Гиндин, Сергей Солопай, Анна Иванова (II)

О фильме: Что делать, если дочь Настя впала в кому по вине мужа Бориса, а сам он оказался предателем? Если твоя молодая ассистентка обманом проникла в твой дом и твою семью? Если руководство уволило с работы, а прежнее окружение списало со счетов? Полина решает, что надо делать мороженое. Мороженое со вкусом соленой карамели. Еще надо снять помещение, закупить оборудование, договориться с поставщиками, наконец, найти бывшего одноклассника Виктора и пригласить его на должность технолога. А еще Полине предстоит переосмыслить свою жизнь, в которой то сладко, то солоно, и попросить прощения у тех, кого обидела. Предстоит разобраться в себе и понять, кто же ей нужен – Борис (когда он попытается вернуть Полину) или Виктор (когда выяснится, что он в нее влюбился). И, конечно, не потерять надежду однажды снова услышать, как Настя скажет - "мама".

Качество: WEBRip
Видео: XviD build 73, 720x400 (16:9), 25.000 fps, ~ 1550 Kbps (~ 0.215 bit/pixel)
Аудио: 48.0 kHz, AC3, 2/0 ch, 192 kbps
Продолжительность: 4 х ~ 00:44:00
Перевод: Не требуется [Русский]
Cубтитры: нет

Релиз:
[+] MediaInfo
General
Complete name: D:RazdachiSolenaja.Karamelj.2019.WEBRip.GeneralFilmSolenaja.Karamelj.e01.avi
Format: AVI
Format/Info: Audio Video Interleave
File size: 557 MiB
Duration: 44 min 45 s
Overall bit rate: 1 740 kb/s
Writing application: VirtualDubMod 1.5.10.3 | www.virtualdub-fr.org || (build 2550/release)
Writing library: VirtualDubMod build 2550/release

Video
ID: 0
Format: MPEG-4 Visual
Format profile: Advanced Simple@L5
Format settings: BVOP1 / Custom Matrix
Format settings, BVOP: 1
Format settings, QPel: No
Format settings, GMC: No warppoints
Format settings, Matrix: Custom
Codec ID: XVID
Codec ID/Hint: XviD
Duration: 44 min 45 s
Bit rate: 1 538 kb/s
Width: 720 pixels
Height: 400 pixels
Display aspect ratio: 16:9
Frame rate: 25.000 FPS
Color space: YUV
Chroma subsampling: 4:2:0
Bit depth: 8 bits
Scan type: Progressive
Compression mode: Lossy
Bits/(Pixel*Frame): 0.214
Stream size: 492 MiB (88%)
Writing library: XviD 73

Audio
ID: 1
Format: AC-3
Format/Info: Audio Coding 3
Commercial name: Dolby Digital
Codec ID: 2000
Duration: 44 min 45 s
Bit rate mode: Constant
Bit rate: 192 kb/s
Channel(s): 2 channels
Channel layout: L R
Sampling rate: 48.0 kHz
Frame rate: 31.250 FPS (1536 SPF)
Bit depth: 16 bits
Compression mode: Lossy
Stream size: 61.5 MiB (11%)
Alignment: Split accross interleaves
Interleave, duration: 40 ms (1.00 video frame)
Interleave, preload duratio: 500 ms
Service kind: Complete Main



Скриншоты:
[+] Всего файлов в раздаче - 4:
Solenaja.Karamelj.e01.avi556.93 MB
Solenaja.Karamelj.e02.avi557.04 MB
Solenaja.Karamelj.e03.avi556.70 MB
Solenaja.Karamelj.e04.avi556.80 MB

Похожие раздачи по запросу - соленая:
2019-05-14 U Соленая карамель [01-04 из 04] (2019) WEBRip-AVC от Files-x 2.22 GB ↑ 66 ↓ 11
2016-11-24 U Рашина Т. - Рыба вяленая, копченая, соленая домашнего приготовления (1999) PDF 53.19 MB ↑ 673 ↓ 13

Отзывы
Зарегистрируйтесь чтобы добавить комментарий.
Обратная связь
Copyleft ©