↑↓Torrent.by
Поиск
Логин: Регистрация
Пароль: Восстановить пароль
Загрузка...

ГудНайтКлаб [01-04] (2019) WEBRip от GeneralFilm

Скачать gudnaytklab-01-04-2019-webrip-ot-generalfilm.torrent
U Магнитная ссылка Размер: 1.33 GB Раздают: 25 Качают: 19 Добавлен: 2019-05-13 05:34:51
ГудНайтКлаб [01-04] (2019) WEBRip от GeneralFilm

Оригинальное название: ГудНайтКлаб
Год выпуска: 2019
Жанр:  Юмористическое шоу, концерт, сатира
Выпущено: Украина, Квартал 95
Режиссер: Студия 95 квартал
В ролях: Валерий Жидков и др.

О фильме: 5 апреля 2019г. состоялась премьера юмористического проекта ГУДНАЙТКЛАБ от студии Квартал 95. Автор программы - Валерий Жидков, знакомый зрителям с Вечернего Квартала и Гуднайтшоу. Главным на сцене будет автор проекта. Своим вступительным стендапом он будет задавать тему вечера, а приглашенные юмористы ее развивать. Валерий Жидков называет проект открытой площадкой для комиков-стендаперов, как известных и опытных, так и новичков. В одном выпуске шоу могут участвовать 3-4 юмориста. По словам автора программы, в ГУДНАЙТКЛАБ НЕ БУДУТ говорить о политике. Темами для разговоров станут социальные вопросы. А главная цель проекта - весело провести время.

Качество: WEBRip
Видео: XviD build 73, 720x400 (16:9), 25.000 fps, 1550 Kbps (0.220 bit/pixel)
Аудио: 48.0 kHz, AC3, 2/0 ch, 192 kbps
Продолжительность: 4 x ~ 00:27:00
Перевод: Не требуется [Русский]
Cубтитры: нет

Релиз:
[+] MediaInfo

General
Complete name               : D:RazdachiGudNajtKlab.2019.XviD.WEBRip.GeneralFilmGudNajtKlab.s01.e01.avi
Format                      : AVI
Format/Info                 : Audio Video Interleave
File size                   : 369 MiB
Duration                    : 29 min 28 s
Overall bit rate            : 1 752 kb/s
Writing application         : VirtualDubMod 1.5.10.3 | www.virtualdub-fr.org || (build 2550/release)
Writing library             : VirtualDubMod build 2550/release

Video
ID                          : 0
Format                      : MPEG-4 Visual
Format profile              : Advanced Simple@L5
Format settings             : BVOP1 / Custom Matrix
Format settings, BVOP       : 1
Format settings, QPel       : No
Format settings, GMC        : No warppoints
Format settings, Matrix     : Custom
Codec ID                    : XVID
Codec ID/Hint               : XviD
Duration                    : 29 min 28 s
Bit rate                    : 1 550 kb/s
Width                       : 720 pixels
Height                      : 400 pixels
Display aspect ratio        : 16:9
Frame rate                  : 25.000 FPS
Color space                 : YUV
Chroma subsampling          : 4:2:0
Bit depth                   : 8 bits
Scan type                   : Progressive
Compression mode            : Lossy
Bits/(Pixel*Frame)          : 0.215
Stream size                 : 327 MiB (88%)
Writing library             : XviD 73

Audio
ID                          : 1
Format                      : AC-3
Format/Info                 : Audio Coding 3
Commercial name             : Dolby Digital
Codec ID                    : 2000
Duration                    : 29 min 28 s
Bit rate mode               : Constant
Bit rate                    : 192 kb/s
Channel(s)                  : 2 channels
Channel layout              : L R
Sampling rate               : 48.0 kHz
Frame rate                  : 31.250 FPS (1536 SPF)
Bit depth                   : 16 bits
Compression mode            : Lossy
Stream size                 : 40.5 MiB (11%)
Alignment                   : Split accross interleaves
Interleave, duration        : 40  ms (1.00 video frame)
Interleave, preload duratio : 500  ms
Service kind                : Complete Main



Скриншоты:
[+] Всего файлов в раздаче - 4:
GudNajtKlab.s01.e01.avi369.19 MB
GudNajtKlab.s01.e02.avi349.30 MB
GudNajtKlab.s01.e03.avi300.09 MB
GudNajtKlab.s01.e04.avi344.49 MB

Похожие раздачи по запросу - гуднайтклаб:
2019-04-08 U ГудНайтКлаб [01] (2019) WEBRip от GeneralFilm 369.19 MB ↑ 91 ↓ 20

Отзывы
Зарегистрируйтесь чтобы добавить комментарий.
Обратная связь
Copyleft ©