↑↓Torrent.by
Поиск
Логин: Регистрация
Пароль: Восстановить пароль
Загрузка...

Воин / Warrior [01x01-06 из 10] (2019) WEBRip | OMSKBIRD

Скачать voin-warrior-01x01-06-iz-10-2019-webrip-omskbird.torrent
U Магнитная ссылка Размер: 3.92 GB Раздают: 74 Качают: 77 Добавлен: 2019-05-13 05:35:14
Воин / Warrior [01x01-06 из 10] (2019) WEBRip  | OMSKBIRD

Название: Воин
Оригинальное название: Warrior
Год выхода: 2019
Жанр: боевик, драма, история
Режиссер: Лони Перистер, Лин Одинг, Дэвид Петрарка
В ролях: Джейсон Дж. Тобин, Эндрю Кодзи, Оливия Ченг, Киран Бью, Дайян Доан, Дин Джаггер III, Лэнгли Кирквуд, Перри Юнг, Райан Крюгер, Рич Тинг и др.

О фильме:
Молодой китайский эмигрант, неплохо владеющий боевыми искусствами, приезжает в Сан-Франциско и сразу же оказывается в эпицентре бандитских войн в местном Чайнатауне.

Страна: США
Продолжительность: ~ 00:60:00 серия
Перевод: Любительский (многоголосый закадровый) | OMSKBIRD

Файл
Кодек: Xvid
Качество: WEBRip
Видео: AVI, 720x400 (16:9), 23.976 fps, ~ 1800 kbps
Звук: Аудио rus: AC-3, 48 KHz, 2 ch, 192 kbps | OMSKBIRD records

Семпл

Присутствует реклама!
Внимание! Присутствует нецензурная лексика!


[+] Mediainfo:
General
Complete name               : H:Мои ДокументыВидеоРАЗДАЧИВОИНWarrior S01 WEBRip (OMSKBIRD)Warrior S01E01 WEBRip (OMSKBIRD).avi
Format                      : AVI
Format/Info                 : Audio Video Interleave
File size                   : 798 MiB
Duration                    : 1 h 1 min
Overall bit rate            : 1 817 kb/s
Writing application         : VirtualDubMod 1.5.10.3 | www.virtualdub-fr.org || (build 2550/release)
Writing library             : VirtualDubMod build 2550/release

Video
ID                          : 0
Format                      : MPEG-4 Visual
Format profile              : Advanced Simple@L5
Format settings, BVOP       : 1
Format settings, QPel       : No
Format settings, GMC        : No warppoints
Format settings, Matrix     : Default (H.263)
Codec ID                    : XVID
Codec ID/Hint               : XviD
Duration                    : 1 h 1 min
Bit rate                    : 1 616 kb/s
Width                       : 720 pixels
Height                      : 400 pixels
Display aspect ratio        : 16:9
Frame rate                  : 23.976 (24000/1001) FPS
Color space                 : YUV
Chroma subsampling          : 4:2:0
Bit depth                   : 8 bits
Scan type                   : Progressive
Compression mode            : Lossy
Bits/(Pixel*Frame)          : 0.234
Stream size                 : 710 MiB (89%)
Writing library             : XviD 67

Audio
ID                          : 1
Format                      : AC-3
Format/Info                 : Audio Coding 3
Format settings, Endianness : Big
Codec ID                    : 2000
Duration                    : 1 h 1 min
Bit rate mode               : Constant
Bit rate                    : 192 kb/s
Channel(s)                  : 2 channels
Channel positions           : Front: L R
Sampling rate               : 48.0 kHz
Frame rate                  : 31.250 FPS (1536 SPF)
Bit depth                   : 16 bits
Compression mode            : Lossy
Stream size                 : 84.3 MiB (11%)
Alignment                   : Split accross interleaves
Interleave, duration        : 42  ms (1.00 video frame)
Interleave, preload duratio : 500  ms
Service kind                : Complete Main




Скриншоты:
[+] Всего файлов в раздаче - 6:
Warrior S01E01 WEBRip (OMSKBIRD).avi798.03 MB
Warrior S01E02 WEBRip (OMSKBIRD).avi613.02 MB
Warrior S01E03 WEBRip (OMSKBIRD).avi644.15 MB
Warrior S01E04 WEBRip (OMSKBIRD).avi634.03 MB
Warrior S01E05 WEBRip (OMSKBIRD).avi673.18 MB
Warrior S01E06 WEBRip (OMSKBIRD).avi656.35 MB

Показать еще раздачи по запросу воин:
2019-06-15 U Воин / Warrior [S01] (2019) WEB-DLRip | LostFilm 9.26 GB ↑ 38 ↓ 54
2019-06-10 U Воин / Warrior [S01] (2019) WEB-DL 1080p | Кириллица 23.31 GB ↑ 47 ↓ 57
2019-06-10 U Воин / Warrior [S01] (2019) WEB-DLRip от Scarabey | Кириллица 7.48 GB ↑ 66 ↓ 116
2019-06-09 U Воин / Warrior [S01] (2019) WEB-DL 720p | Кириллица 11.92 GB ↑ 232 ↓ 755
2019-06-02 U Воин / Warrior [01x01-09 из 10] (2019) WEB-DL 1080p | Кириллица 20.75 GB ↑ 33 ↓ 209
2019-05-26 U Воин / Warrior [01x01-08 из 10] (2019) WEB-DL 1080p | Кириллица 18.31 GB ↑ 42 ↓ 217
2019-05-21 U Воин / Warrior [01x01-07 из 10] (2019) WEB-DLRip | LostFilm 6.40 GB ↑ 33 ↓ 49

Отзывы
Зарегистрируйтесь чтобы добавить комментарий.
Обратная связь
Copyleft ©