↑↓Torrent.by
Поиск
Логин: Регистрация
Пароль: Восстановить пароль
Загрузка...

Наркокурьер / The Mule (2018) BDRip 1080p от селезень | Лицензия

Скачать narkokurer-the-mule-2018-bdrip-1080p-ot-selezen-licenziya.torrent
U Магнитная ссылка Размер: 13.41 GB Раздают: 154 Качают: 120 Добавлен: 2019-05-13 19:24:22
Наркокурьер / The Mule (2018) BDRip 1080p от селезень | Лицензия

Название: Наркокурьер
Оригинальное название: The Mule
Год выхода: 2018
Жанр: Триллер, драма, криминал, детектив
Режиссер: Клинт Иствуд
В ролях: Клинт Иствуд, Брэдли Купер, Таисса Фармига, Элисон Иствуд, Майкл Пенья, Энди Гарсиа, Лоуренс Фишборн, Дайэнн Уист, Игнасио Серричио, Джилл Флинт

О фильме: Эрл Стоун - одинокий старик. Его частный бизнес находится на грани разорения, отношения с женой не ладятся, а дети, кажется, давно забыли о его существовании. Неожиданно ему предлагают непыльную, но прибыльную работенку - просто водить машину. Стоун поначалу соглашается и вскоре понимает, что стал наркокурьером мексиканского картеля и попал в поле зрения оперативника Агентства по контролю за оборотом наркотиков.

Страна: США
Студия: Warner Bros., Imperative Entertainment, Bron Creative
Продолжительность: 01:56:27
Перевод: Дублированный | Лицензия

Качество: BDRip 1080p
Видео: MPEG-4 AVC, 1920x804, 15.2 Mbit/s, 23.976 fps
Звук:
Аудио #01: 48 kHz, AC3, 5.1, 640 Kbps | Лицензия | RUS |
Аудио #02: 48 kHz, AC3, 5.1, 640 Kbps | Оригинал |  ENG |
Субтитры: Русские (Forced, full), английские

Релиз:


[+] MI
General
Unique ID                   : 302047182754320013023664158557355070351 (0xE33C2BE01CCAB9A680162A8CCDCB538F)
Complete name               : D:Video111The.Mule.2018.Lic.BDRip.1080p.seleZen.mkv
Format                      : Matroska
Format version              : Version 4
File size                   : 13.4 GiB
Duration                    : 1 h 56 min
Overall bit rate            : 16.5 Mb/s
Movie name                  : The Mule 2018 from селезень
Encoded date                : UTC 2019-05-13 04:43:54
Writing application         : mkvmerge v33.1.0 ('Primrose') 64-bit
Writing library             : libebml v1.3.7 + libmatroska v1.5.0

Video
ID                          : 1
Format                      : AVC
Format/Info                 : Advanced Video Codec
Format profile              : High@L4.1
Format settings             : CABAC / 5 Ref Frames
Format settings, CABAC      : Yes
Format settings, Reference  : 5 frames
Codec ID                    : V_MPEG4/ISO/AVC
Duration                    : 1 h 56 min
Bit rate                    : 15.2 Mb/s
Width                       : 1 920 pixels
Height                      : 804 pixels
Display aspect ratio        : 2.40:1
Frame rate mode             : Constant
Frame rate                  : 23.976 (24000/1001) FPS
Color space                 : YUV
Chroma subsampling          : 4:2:0
Bit depth                   : 8 bits
Scan type                   : Progressive
Bits/(Pixel*Frame)          : 0.411
Stream size                 : 12.4 GiB (92%)
Title                       : playHD
Writing library             : x264 core 157 r2935 545de2f
Encoding settings           : cabac=1 / ref=5 / deblock=1:-3:-3 / analyse=0x3:0x133 / me=umh / subme=10 / psy=1 / psy_rd=1.00:0.00 / mixed_ref=1 / me_range=32 / chroma_me=1 / trellis=2 / 8x8dct=1 / cqm=0 / deadzone=21,11 / fast_pskip=0 / chroma_qp_offset=-2 / threads=12 / lookahead_threads=2 / sliced_threads=0 / nr=0 / decimate=0 / interlaced=0 / bluray_compat=0 / constrained_intra=0 / bframes=8 / b_pyramid=2 / b_adapt=2 / b_bias=0 / direct=3 / weightb=1 / open_gop=0 / weightp=2 / keyint=250 / keyint_min=23 / scenecut=40 / intra_refresh=0 / rc=crf / mbtree=0 / crf=16.1 / qcomp=0.60 / qpmin=0 / qpmax=69 / qpstep=4 / ip_ratio=1.30 / pb_ratio=1.20 / aq=3:0.80
Language                    : English
Default                     : Yes
Forced                      : No

Audio #1
ID                          : 2
Format                      : AC-3
Format/Info                 : Audio Coding 3
Commercial name             : Dolby Digital
Codec ID                    : A_AC3
Duration                    : 1 h 56 min
Bit rate mode               : Constant
Bit rate                    : 640 kb/s
Channel(s)                  : 6 channels
Channel layout              : L R C LFE Ls Rs
Sampling rate               : 48.0 kHz
Frame rate                  : 31.250 FPS (1536 SPF)
Bit depth                   : 16 bits
Compression mode            : Lossy
Stream size                 : 533 MiB (4%)
Title                       : Dub [License]
Language                    : Russian
Service kind                : Complete Main
Default                     : Yes
Forced                      : Yes

Audio #2
ID                          : 3
Format                      : AC-3
Format/Info                 : Audio Coding 3
Commercial name             : Dolby Digital
Codec ID                    : A_AC3
Duration                    : 1 h 56 min
Bit rate mode               : Constant
Bit rate                    : 640 kb/s
Channel(s)                  : 6 channels
Channel layout              : L R C LFE Ls Rs
Sampling rate               : 48.0 kHz
Frame rate                  : 31.250 FPS (1536 SPF)
Bit depth                   : 16 bits
Compression mode            : Lossy
Stream size                 : 533 MiB (4%)
Title                       : Original
Language                    : English
Service kind                : Complete Main
Default                     : No
Forced                      : No

Text #1
ID                          : 4
Format                      : UTF-8
Codec ID                    : S_TEXT/UTF8
Codec ID/Info               : UTF-8 Plain Text
Duration                    : 1 h 55 min
Bit rate                    : 5 b/s
Count of elements           : 94
Stream size                 : 4.37 KiB (0%)
Title                       : Forced
Language                    : Russian
Default                     : Yes
Forced                      : Yes

Text #2
ID                          : 5
Format                      : UTF-8
Codec ID                    : S_TEXT/UTF8
Codec ID/Info               : UTF-8 Plain Text
Duration                    : 1 h 55 min
Bit rate                    : 91 b/s
Count of elements           : 1556
Stream size                 : 77.4 KiB (0%)
Title                       : Full
Language                    : Russian
Default                     : No
Forced                      : No

Text #3
ID                          : 6
Format                      : UTF-8
Codec ID                    : S_TEXT/UTF8
Codec ID/Info               : UTF-8 Plain Text
Duration                    : 1 h 49 min
Bit rate                    : 58 b/s
Count of elements           : 1647
Stream size                 : 47.2 KiB (0%)
Language                    : English
Default                     : No
Forced                      : No

Menu
00:00:00.000                : en:Chapter 1
00:06:45.822                : en:Chapter 2
00:15:27.885                : en:Chapter 3
00:23:24.236                : en:Chapter 4
00:32:22.482                : en:Chapter 5
00:40:29.886                : en:Chapter 6
00:48:20.564                : en:Chapter 7
00:57:55.347                : en:Chapter 8
01:07:17.408                : en:Chapter 9
01:16:17.364                : en:Chapter 10
01:23:18.785                : en:Chapter 11
01:32:20.160                : en:Chapter 12
01:39:12.947                : en:Chapter 13
01:46:17.580                : en:Chapter 14
01:48:52.443                : en:Chapter 15



Скриншоты:
[+] Всего файлов в раздаче - 1:
The.Mule.2018.Lic.BDRip.1080p.seleZen.mkv13.41 GB

Показать еще раздачи по запросу наркокурьер:
2019-05-15 U Наркокурьер / The Mule (2018) HDRip от Scarabey | Лицензия 745.53 MB ↑ 32 ↓ 6
2019-05-14 U Наркокурьер / The Mule (2018) BDRip от Twister & ExKinoRay | Лицензия 2.18 GB ↑ 21 ↓ 8
2019-05-14 U Наркокурьер / The Mule (2018) BDRip от Twister & ExKinoRay | Лицензия 1.46 GB ↑ 28 ↓ 15
2019-05-14 U Наркокурьер / The Mule (2018) BDRip-AVC от HELLYWOOD | Лицензия 2.18 GB ↑ 50 ↓ 12
2019-05-13 U Наркокурьер / The Mule (2018) BDRip-AVC от ExKinoRay | Лицензия 2.16 GB ↑ 150 ↓ 30
2019-05-13 U Наркокурьер / The Mule (2018) BDRip 720p от селезень | Лицензия 6.43 GB ↑ 143 ↓ 72
2019-05-13 U Наркокурьер / The Mule (2018) BDRip от MegaPeer | Лицензия 1.46 GB ↑ 282 ↓ 101

Отзывы
Зарегистрируйтесь чтобы добавить комментарий.
Обратная связь
Copyleft ©