↑↓Torrent.by
Поиск
Логин: Регистрация
Пароль: Восстановить пароль
Загрузка...

Наркокурьер / The Mule (2018) BDRip-AVC от ExKinoRay | Лицензия

Скачать narkokurer-the-mule-2018-bdrip-avc-ot-exkinoray-licenziya.torrent
U Магнитная ссылка Размер: 2.16 GB Раздают: 154 Качают: 30 Добавлен: 2019-05-13 19:24:33
Наркокурьер / The Mule (2018) BDRip-AVC от ExKinoRay | Лицензия

Название: Наркокурьер
Оригинальное название: The Mule
Год выпуска: 2018
Жанр: Триллер, драма, криминал, детектив
Режиссер: Клинт Иствуд
В ролях: Клинт Иствуд, Брэдли Купер, Таисса Фармига, Элисон Иствуд, Майкл Пенья, Энди Гарсиа, Лоуренс Фишборн, Дайэнн Уист, Игнасио Серричио, Джилл Флинт

Описание:   Эрл Стоун - одинокий старик. Его частный бизнес находится на грани разорения, отношения с женой не ладятся, а дети, кажется, давно забыли о его существовании. Неожиданно ему предлагают непыльную, но прибыльную работенку - просто водить машину. Стоун поначалу соглашается и вскоре понимает, что стал наркокурьером мексиканского картеля и попал в поле зрения оперативника Агентства по контролю за оборотом наркотиков.

Страна: США
Студия: Warner Bros., Imperative Entertainment, Bron Creative
Продолжительность: 01:56:27
Перевод: Дублированный | Лицензия
Субтитры: Русские (Forced, full), английские

БЕЗ КАКОЙ-ЛИБО РЕКЛАМЫ!

Формат: MKV
Качество: BDRip-AVC
Видео: MPEG-4 AVC, 1024x428 (2.40:1), 23.976 fps, 1755 Kbps, 0.167 bit/pixel
Аудио #01: 48 kHz, AC3, 5.1, 448 Kbps | RUS |
Аудио #02: 48 kHz, AC3, 5.1, 448 Kbps | Оригинал |  ENG |

Релиз:

Автор релиза:


[+] ОтчетМедиаИнфо

General
Unique ID                                : 237909256615150577758250536565056086198 (0xB2FBA7F88ACBB4D687F84CB9CA2220B6)
Complete name                            : D:The.Mule.2018.BDRip.AVC.ExKinoRay.mkv
Format                                   : Matroska
Format version                           : Version 2
File size                                : 2.16 GiB
Duration                                 : 1 h 56 min
Overall bit rate                         : 2 652 kb/s
Movie name                               : The Mule 2018 from ExKinoRay
Encoded date                             : UTC 2019-05-13 04:53:06
Writing application                      : mkvmerge v5.6.0 ('Kenya Kane') built on May 27 2012 16:44:04
Writing library                          : libebml v1.2.3 + libmatroska v1.3.0

Video
ID                                       : 1
Format                                   : AVC
Format/Info                              : Advanced Video Codec
Format profile                           : High@L4.1
Format settings, CABAC                   : Yes
Format settings, ReFrames                : 11 frames
Codec ID                                 : V_MPEG4/ISO/AVC
Duration                                 : 1 h 56 min
Bit rate                                 : 1 755 kb/s
Width                                    : 1 024 pixels
Height                                   : 428 pixels
Display aspect ratio                     : 2.40:1
Frame rate mode                          : Constant
Frame rate                               : 23.976 (23976/1000) FPS
Color space                              : YUV
Chroma subsampling                       : 4:2:0
Bit depth                                : 8 bits
Scan type                                : Progressive
Bits/(Pixel*Frame)                       : 0.167
Stream size                              : 1.39 GiB (64%)
Title                                    : Enigma
Writing library                          : x264 core 152 r2851 ba24899
Encoding settings                        : cabac=1 / ref=11 / deblock=1:-2:-2 / analyse=0x3:0x113 / me=umh / subme=10 / psy=1 / psy_rd=1.02:0.05 / mixed_ref=1 / me_range=32 / chroma_me=1 / trellis=2 / 8x8dct=1 / cqm=0 / deadzone=21,11 / fast_pskip=0 / chroma_qp_offset=-3 / threads=12 / lookahead_threads=3 / sliced_threads=0 / nr=0 / decimate=0 / interlaced=0 / bluray_compat=0 / constrained_intra=0 / bframes=10 / b_pyramid=2 / b_adapt=2 / b_bias=0 / direct=3 / weightb=1 / open_gop=0 / weightp=2 / keyint=240 / keyint_min=23 / scenecut=40 / intra_refresh=0 / rc_lookahead=40 / rc=2pass / mbtree=1 / bitrate=1755 / ratetol=1.0 / qcomp=0.60 / qpmin=0 / qpmax=51 / qpstep=4 / cplxblur=20.0 / qblur=0.5 / ip_ratio=1.30 / aq=2:0.90
Language                                 : English
Default                                  : Yes
Forced                                   : No
Color range                              : Limited
Color primaries                          : BT.709
Transfer characteristics                 : BT.709
Matrix coefficients                      : BT.709

Audio #1
ID                                       : 2
Format                                   : AC-3
Format/Info                              : Audio Coding 3
Mode extension                           : CM (complete main)
Format settings, Endianness              : Big
Codec ID                                 : A_AC3
Duration                                 : 1 h 56 min
Bit rate mode                            : Constant
Bit rate                                 : 448 kb/s
Channel(s)                               : 6 channels
Channel positions                        : Front: L C R, Side: L R, LFE
Sampling rate                            : 48.0 kHz
Frame rate                               : 31.250 FPS (1536 spf)
Compression mode                         : Lossy
Stream size                              : 373 MiB (17%)
Title                                    : Dub (Blu-Ray)
Language                                 : Russian
Default                                  : Yes
Forced                                   : No

Audio #2
ID                                       : 3
Format                                   : AC-3
Format/Info                              : Audio Coding 3
Mode extension                           : CM (complete main)
Format settings, Endianness              : Big
Codec ID                                 : A_AC3
Duration                                 : 1 h 56 min
Bit rate mode                            : Constant
Bit rate                                 : 448 kb/s
Channel(s)                               : 6 channels
Channel positions                        : Front: L C R, Side: L R, LFE
Sampling rate                            : 48.0 kHz
Frame rate                               : 31.250 FPS (1536 spf)
Compression mode                         : Lossy
Stream size                              : 373 MiB (17%)
Language                                 : English
Default                                  : No
Forced                                   : No

Text #1
ID                                       : 4
Format                                   : UTF-8
Codec ID                                 : S_TEXT/UTF8
Codec ID/Info                            : UTF-8 Plain Text
Title                                    : Forced
Language                                 : Russian
Default                                  : Yes
Forced                                   : No

Text #2
ID                                       : 5
Format                                   : UTF-8
Codec ID                                 : S_TEXT/UTF8
Codec ID/Info                            : UTF-8 Plain Text
Title                                    : Full
Language                                 : Russian
Default                                  : No
Forced                                   : No

Text #3
ID                                       : 6
Format                                   : UTF-8
Codec ID                                 : S_TEXT/UTF8
Codec ID/Info                            : UTF-8 Plain Text
Language                                 : English
Default                                  : No
Forced                                   : No

Menu
00:00:00.000                             : en:00:00:00.000
00:06:45.822                             : en:00:06:45.822
00:15:27.885                             : en:00:15:27.885
00:23:24.236                             : en:00:23:24.236
00:32:22.482                             : en:00:32:22.482
00:40:29.886                             : en:00:40:29.886
00:48:20.564                             : en:00:48:20.564
00:57:55.347                             : en:00:57:55.347
01:07:17.408                             : en:01:07:17.408
01:16:17.364                             : en:01:16:17.364
01:23:18.785                             : en:01:23:18.785
01:32:20.160                             : en:01:32:20.160
01:39:12.947                             : en:01:39:12.947
01:46:17.580                             : en:01:46:17.580
01:48:52.443                             : en:01:48:52.443




Скриншоты:
[+] Всего файлов в раздаче - 1:
The.Mule.2018.BDRip.AVC.ExKinoRay.mkv2.16 GB

Показать еще раздачи по запросу наркокурьер:
2019-05-15 U Наркокурьер / The Mule (2018) HDRip от Scarabey | Лицензия 745.53 MB ↑ 32 ↓ 6
2019-05-14 U Наркокурьер / The Mule (2018) BDRip от Twister & ExKinoRay | Лицензия 2.18 GB ↑ 21 ↓ 8
2019-05-14 U Наркокурьер / The Mule (2018) BDRip от Twister & ExKinoRay | Лицензия 1.46 GB ↑ 27 ↓ 15
2019-05-14 U Наркокурьер / The Mule (2018) BDRip-AVC от HELLYWOOD | Лицензия 2.18 GB ↑ 50 ↓ 12
2019-05-13 U Наркокурьер / The Mule (2018) BDRip 1080p от селезень | Лицензия 13.41 GB ↑ 153 ↓ 122
2019-05-13 U Наркокурьер / The Mule (2018) BDRip 720p от селезень | Лицензия 6.43 GB ↑ 143 ↓ 72
2019-05-13 U Наркокурьер / The Mule (2018) BDRip от MegaPeer | Лицензия 1.46 GB ↑ 282 ↓ 101

Отзывы
Зарегистрируйтесь чтобы добавить комментарий.
Обратная связь
Copyleft ©